<?xml version="1.0" standalone="no"?>
<!DOCTYPE svg PUBLIC "-//W3C//DTD SVG 1.1//EN" "http://www.w3.org/Graphics/SVG/1.1/DTD/svg11.dtd" >
<svg xmlns="http://www.w3.org/2000/svg" xmlns:xlink="http://www.w3.org/1999/xlink" version="1.1">
<metadata>
Created by FontForge 20190801 at Mon Dec 16 13:17:49 2002
 By www-data
(C)2002 House Industries/Brand Design Co. Inc.
</metadata>
<defs>
<font id="NeutraText-BoldItalic" horiz-adv-x="244" >
  <font-face 
    font-family="Neutra Text"
    font-weight="700"
    font-style="italic"
    font-stretch="normal"
    units-per-em="1000"
    panose-1="2 0 0 0 0 0 0 0 0 0"
    ascent="800"
    descent="-200"
    x-height="426"
    cap-height="680"
    bbox="-137 -240 1201 964"
    underline-thickness="20"
    underline-position="-143"
    slope="-12"
    stemh="99"
    stemv="145"
    unicode-range="U+000D-FB02"
  />
<missing-glyph horiz-adv-x="500" 
 />
    <glyph glyph-name="fi" unicode="fi" horiz-adv-x="577" 
d="M506 504c-42 0 -78 31 -78 78c0 46 35 77 77 77c43 0 79 -31 79 -77c0 -47 -35 -78 -78 -78zM252 317l-73 -414c-18 -104 -58 -115 -147 -115h-69l19 99h40c15 0 23 4 27 25l71 405h-70l19 109h70l27 152c18 101 65 157 166 157c51 0 84 -15 117 -46l-77 -87
c-11 10 -19 15 -34 15c-22 0 -35 -10 -41 -42l-26 -149h273l-53 -302c-3 -18 3 -25 18 -25h30l-17 -99h-50c-96 0 -131 22 -113 123l34 194h-141z" />
    <glyph glyph-name="fl" unicode="fl" horiz-adv-x="577" 
d="M120 317h-70l19 109h70l22 126c21 119 86 183 217 183c134 0 207 -78 183 -214l-70 -397c-3 -18 3 -25 18 -25h38l-17 -99h-58c-96 0 -131 22 -113 123l71 404c12 67 -9 95 -60 95c-50 0 -69 -26 -79 -85l-20 -111h93l-19 -109h-93l-73 -414c-18 -104 -58 -115 -147 -115
h-69l19 99h40c15 0 23 4 27 25z" />
    <glyph glyph-name="ff" unicode="ff" horiz-adv-x="645" 
d="M393 317h-141l-73 -414c-18 -104 -58 -115 -147 -115h-69l19 99h40c15 0 23 4 27 25l71 405h-70l19 109h70l24 132c18 101 66 157 164 157c45 0 73 -11 98 -33l-57 -99c-11 9 -20 14 -35 14c-20 0 -33 -10 -39 -42l-23 -129h141l27 152c18 101 68 157 169 157
c57 0 96 -20 125 -54l-77 -87c-10 14 -21 23 -42 23c-22 0 -38 -10 -44 -42l-26 -149h110l-19 -109h-110l-69 -389c-18 -104 -58 -115 -147 -115h-61l19 99h32c15 0 23 4 27 25z" />
    <glyph glyph-name="ffi" unicode="ffi" horiz-adv-x="850" 
d="M779 504c-42 0 -78 31 -78 78c0 46 35 77 77 77c43 0 79 -31 79 -77c0 -47 -35 -78 -78 -78zM525 317l-69 -389c-18 -104 -58 -115 -147 -115h-61l19 99h32c15 0 23 4 27 25l67 380h-141l-73 -414c-18 -104 -58 -115 -147 -115h-69l19 99h40c15 0 23 4 27 25l71 405h-70
l19 109h70l24 132c18 101 66 157 164 157c45 0 73 -11 98 -33l-57 -99c-11 9 -20 14 -35 14c-20 0 -33 -10 -39 -42l-23 -129h141l27 152c18 101 65 157 166 157c51 0 84 -15 117 -46l-77 -87c-11 10 -19 15 -34 15c-22 0 -35 -10 -41 -42l-27 -149h274l-53 -302
c-3 -18 3 -25 18 -25h30l-17 -99h-50c-96 0 -131 22 -113 123l34 194h-141z" />
    <glyph glyph-name="ffl" unicode="ffl" horiz-adv-x="850" 
d="M393 317h-141l-73 -414c-18 -104 -58 -115 -147 -115h-69l19 99h40c15 0 23 4 27 25l71 405h-70l19 109h70l24 132c18 101 66 157 164 157c46 0 79 -13 103 -35l-62 -97c-11 9 -20 14 -35 14c-20 0 -33 -10 -39 -42l-23 -129h141l22 126c21 119 86 183 217 183
c134 0 207 -78 183 -214l-70 -397c-3 -18 3 -25 18 -25h38l-17 -99h-58c-96 0 -131 22 -113 123l71 404c12 67 -9 95 -60 95c-50 0 -69 -26 -79 -85l-20 -111h93l-19 -109h-93l-69 -389c-18 -104 -58 -115 -147 -115h-61l19 99h32c15 0 23 4 27 25z" />
    <glyph glyph-name=".notdef" horiz-adv-x="500" 
 />
    <glyph glyph-name=".notdef" horiz-adv-x="500" 
 />
    <glyph glyph-name="space" unicode=" " horiz-adv-x="206" 
 />
    <glyph glyph-name="exclam" unicode="!" horiz-adv-x="269" 
d="M82 231l63 449h148l-109 -449h-102zM112 -6c-44 0 -81 34 -81 83c0 48 37 83 81 83s82 -35 82 -83c0 -49 -38 -83 -82 -83z" />
    <glyph glyph-name="quotedbl" unicode="&#x22;" horiz-adv-x="400" 
d="M278 433l28 247h143l-63 -247h-108zM90 433l29 247h141l-62 -247h-108z" />
    <glyph glyph-name="numbersign" unicode="#" horiz-adv-x="475" 
d="M139 421h-68l18 101h75l25 97h103l-25 -97h71l25 97h103l-25 -97h58l-18 -101h-65l-19 -77h70l-18 -101h-77l-25 -101h-103l25 101h-71l-25 -101h-103l25 101h-56l18 101h63zM313 421h-71l-19 -77h71z" />
    <glyph glyph-name="dollar" unicode="$" horiz-adv-x="476" 
d="M161 -3c-97 18 -146 77 -169 125l103 52c14 -29 39 -61 84 -75l20 116c-112 37 -147 92 -147 165c0 96 79 151 189 151h13l18 100h65l-19 -109c60 -15 100 -47 126 -86l-91 -63c-11 20 -28 38 -53 48l-18 -102c104 -34 161 -84 161 -169c0 -113 -96 -159 -218 -159
l-19 -107h-65zM237 433c-47 -2 -64 -21 -64 -45c0 -22 12 -37 48 -50zM242 92c53 4 76 24 76 49c0 24 -12 40 -57 55z" />
    <glyph glyph-name="percent" unicode="%" horiz-adv-x="876" 
d="M213 217c-94 0 -158 69 -158 153c0 96 74 161 163 161c94 0 158 -66 158 -150c0 -96 -74 -164 -163 -164zM175 0l419 522h127l-419 -522h-127zM678 -9c-94 0 -158 69 -158 153c0 96 74 161 163 161c94 0 158 -66 158 -150c0 -96 -74 -164 -163 -164zM214 314
c29 0 53 26 53 63c0 39 -23 57 -49 57c-29 0 -53 -23 -53 -63c0 -36 23 -57 49 -57zM679 88c29 0 53 26 53 63c0 39 -23 57 -49 57c-29 0 -53 -23 -53 -63c0 -36 23 -57 49 -57z" />
    <glyph glyph-name="ampersand" unicode="&#x26;" horiz-adv-x="681" 
d="M386 366l85 -135c20 36 34 80 40 130h121c-12 -95 -45 -175 -93 -236c9 -10 19 -13 34 -13h58l-20 -112h-55c-54 0 -86 12 -114 39c-51 -31 -108 -48 -167 -48c-161 0 -243 86 -243 191c0 98 65 160 179 212c-26 50 -32 90 -32 128c0 98 72 166 188 166
c95 0 164 -63 164 -149c0 -70 -46 -128 -145 -173zM337 443c56 26 76 56 76 89c0 29 -19 53 -47 53c-34 0 -56 -26 -56 -62c0 -31 11 -55 23 -74zM374 133l-114 180c-59 -32 -83 -71 -83 -121c0 -47 36 -83 97 -83c36 0 70 8 100 24z" />
    <glyph glyph-name="quoteright" unicode="&#x2019;" horiz-adv-x="239" 
d="M97 420l59 120c-26 15 -42 37 -42 71c0 44 35 77 77 77s77 -33 77 -79c0 -31 -14 -56 -33 -83l-74 -106h-64z" />
    <glyph glyph-name="parenleft" unicode="(" horiz-adv-x="337" 
d="M174 -133c-60 77 -120 200 -120 345c0 273 149 417 266 507l62 -71c-115 -105 -191 -249 -191 -438c0 -120 27 -209 71 -289z" />
    <glyph glyph-name="parenright" unicode=")" horiz-adv-x="337" 
d="M50 -133l-64 71c115 105 191 249 191 438c0 120 -27 209 -71 289l88 54c60 -77 120 -200 120 -345c0 -273 -148 -417 -264 -507z" />
    <glyph glyph-name="asterisk" unicode="*" horiz-adv-x="414" 
d="M190 358l42 114l-90 -72l-46 103l114 20l-109 42l66 92l74 -89l-20 112h117l-42 -114l88 76l46 -105l-115 -20l110 -42l-66 -91l-72 86l20 -112h-117z" />
    <glyph glyph-name="plus" unicode="+" horiz-adv-x="403" 
d="M261 213l-20 -112h-114l20 112h-107l20 110h106l20 112h114l-20 -112h106l-20 -110h-105z" />
    <glyph glyph-name="comma" unicode="," horiz-adv-x="240" 
d="M-1 -114l62 119c-27 15 -44 39 -44 74c0 46 36 81 81 81c44 0 81 -35 81 -83c0 -32 -15 -56 -35 -83l-79 -108h-66z" />
    <glyph glyph-name="hyphen" unicode="-" horiz-adv-x="292" 
d="M29 184l21 116h226l-21 -116h-226z" />
    <glyph glyph-name="hyphen" unicode="&#xad;" horiz-adv-x="292" 
d="M29 184l21 116h226l-21 -116h-226z" />
    <glyph glyph-name="period" unicode="." horiz-adv-x="240" 
d="M98 -6c-44 0 -81 34 -81 83c0 48 37 83 81 83s81 -35 81 -83c0 -49 -37 -83 -81 -83z" />
    <glyph glyph-name="slash" unicode="/" horiz-adv-x="396" 
d="M-73 -128l422 850h131l-422 -850h-131z" />
    <glyph glyph-name="zero" unicode="0" horiz-adv-x="612" 
d="M307 -9c-146 0 -264 109 -264 263c0 177 144 277 282 277c146 0 264 -109 264 -263c0 -177 -144 -277 -282 -277zM310 108c76 0 139 54 139 160c0 90 -52 146 -127 146c-76 0 -139 -57 -139 -160c0 -90 52 -146 127 -146z" />
    <glyph glyph-name="one" unicode="1" horiz-adv-x="321" 
d="M84 0l73 413h-96l19 109h230l-92 -522h-134z" />
    <glyph glyph-name="two" unicode="2" horiz-adv-x="475" 
d="M-7 0v12l221 208c71 66 98 96 98 138c0 29 -16 55 -56 55c-41 0 -65 -25 -84 -71l-122 31c37 117 123 158 213 158c129 0 185 -79 185 -159c0 -77 -40 -126 -118 -199l-36 -34c-18 -17 -52 -34 -52 -34s37 5 57 5h129l-19 -110h-416z" />
    <glyph glyph-name="three" unicode="3" horiz-adv-x="509" 
d="M219 -103c-131 0 -205 68 -236 139l119 59c18 -43 54 -81 114 -81c54 0 105 32 105 104c0 60 -45 104 -113 104c-36 0 -63 -9 -84 -19l-8 12l137 158c22 25 49 46 49 46s-38 -5 -66 -5h-145l19 108h399v-11l-145 -168c-18 -21 -43 -38 -43 -38c63 -15 141 -74 141 -189
c0 -119 -85 -219 -243 -219z" />
    <glyph glyph-name="four" unicode="4" horiz-adv-x="543" 
d="M422 100h69l-18 -100h-69l-16 -94h-133l17 94h-284l16 92l480 436h14zM290 100l16 92c4 22 20 66 20 66s-26 -30 -47 -49l-84 -76c-22 -20 -48 -36 -48 -36s27 3 55 3h88z" />
    <glyph glyph-name="five" unicode="5" horiz-adv-x="485" 
d="M203 -103c-122 0 -193 65 -220 135l121 54c12 -32 40 -72 94 -72c68 0 97 41 97 97c0 52 -35 96 -106 96c-46 0 -85 -18 -117 -39l-8 5l61 349h336l-19 -108h-222l-18 -104c8 2 22 5 40 5c120 0 196 -91 196 -199c0 -121 -84 -219 -235 -219z" />
    <glyph glyph-name="six" unicode="6" horiz-adv-x="523" 
d="M255 -9c-127 0 -221 87 -221 211c0 77 42 142 101 208l178 199h155l-151 -168c-23 -25 -85 -59 -85 -59c27 12 48 15 76 15c95 0 181 -77 181 -192c0 -136 -104 -214 -234 -214zM259 107c58 0 93 44 93 98c0 51 -33 92 -88 92c-58 0 -94 -43 -94 -97c0 -51 34 -93 89 -93
z" />
    <glyph glyph-name="seven" unicode="7" horiz-adv-x="480" 
d="M13 -94l299 508h-245l19 108h425v-11l-355 -605h-143z" />
    <glyph glyph-name="eight" unicode="8" horiz-adv-x="529" 
d="M183 359c-33 22 -57 56 -56 105c0 77 68 154 186 154c109 0 183 -70 183 -153c0 -69 -49 -107 -101 -126c57 -29 98 -80 97 -154c0 -115 -90 -194 -232 -194c-133 0 -229 86 -229 195c0 98 64 153 152 173zM310 397c31 0 55 24 55 58c0 31 -19 55 -54 55
c-31 0 -56 -22 -56 -56c0 -31 20 -57 55 -57zM260 106c58 0 94 43 94 98c0 50 -34 92 -89 92c-58 0 -94 -45 -94 -100c0 -50 34 -90 89 -90z" />
    <glyph glyph-name="nine" unicode="9" horiz-adv-x="523" 
d="M72 -94l156 171c30 33 86 66 86 66c-22 -12 -50 -18 -77 -18c-96 0 -183 75 -183 190c0 135 104 216 232 216s223 -83 223 -211c0 -83 -50 -156 -111 -224l-169 -190h-157zM279 225c59 0 94 44 94 98s-34 92 -89 92c-59 0 -93 -44 -93 -98c0 -53 33 -92 88 -92z" />
    <glyph glyph-name="colon" unicode=":" horiz-adv-x="246" 
d="M141 226c-44 0 -81 34 -81 83c0 48 37 83 81 83s81 -35 81 -83c0 -49 -37 -83 -81 -83zM101 -6c-44 0 -81 34 -81 83c0 48 37 83 81 83s81 -35 81 -83c0 -49 -37 -83 -81 -83z" />
    <glyph glyph-name="semicolon" unicode=";" horiz-adv-x="246" 
d="M141 226c-44 0 -81 34 -81 83c0 48 37 83 81 83s81 -35 81 -83c0 -49 -37 -83 -81 -83zM2 -114l62 119c-27 15 -44 39 -44 74c0 46 36 81 81 81c44 0 81 -35 81 -83c0 -32 -15 -56 -35 -83l-79 -108h-66z" />
    <glyph glyph-name="semicolon" unicode="&#x37e;" horiz-adv-x="246" 
d="M141 226c-44 0 -81 34 -81 83c0 48 37 83 81 83s81 -35 81 -83c0 -49 -37 -83 -81 -83zM2 -114l62 119c-27 15 -44 39 -44 74c0 46 36 81 81 81c44 0 81 -35 81 -83c0 -32 -15 -56 -35 -83l-79 -108h-66z" />
    <glyph glyph-name="less" unicode="&#x3c;" horiz-adv-x="351" 
d="M292 72l-261 166v11l321 165l-21 -120l-124 -56l104 -56z" />
    <glyph glyph-name="equal" unicode="=" horiz-adv-x="397" 
d="M48 279l20 115h327l-20 -115h-327zM19 115l21 115h327l-21 -115h-327z" />
    <glyph glyph-name="greater" unicode="&#x3e;" horiz-adv-x="351" 
d="M13 72l21 120l124 56l-104 56l19 110l261 -166v-11z" />
    <glyph glyph-name="question" unicode="?" horiz-adv-x="503" 
d="M201 231l28 159h35c82 0 116 44 116 98c0 48 -29 83 -80 83c-47 0 -78 -26 -103 -65l-102 60c35 68 112 122 207 122c139 0 211 -91 211 -201s-80 -181 -178 -194l-11 -62h-123zM238 -6c-44 0 -81 34 -81 83c0 48 37 83 81 83s82 -35 82 -83c0 -49 -38 -83 -82 -83z" />
    <glyph glyph-name="at" unicode="@" horiz-adv-x="896" 
d="M448 -207c-258 0 -413 167 -413 389c0 262 201 426 432 426c249 0 397 -164 397 -362c0 -173 -83 -250 -202 -250c-72 0 -116 38 -132 79c-27 -57 -74 -84 -124 -84c-99 0 -169 77 -169 190c0 129 83 210 177 210c64 0 100 -35 119 -78l9 68h126l-39 -219
c-9 -48 3 -73 39 -73c43 0 85 40 85 160c0 168 -122 260 -286 260c-180 0 -313 -131 -313 -328c0 -170 103 -289 296 -289c48 0 104 8 153 24l35 -91c-56 -24 -120 -32 -190 -32zM443 97c41 0 71 43 71 99c0 47 -28 87 -66 87c-45 0 -75 -35 -75 -100c0 -56 28 -86 70 -86z
" />
    <glyph glyph-name="A" unicode="A" horiz-adv-x="651" 
d="M169 79l-47 -79h-137l414 686h11l184 -686h-139l-20 79h-266zM407 188l-31 123c-14 54 -17 112 -17 112s-20 -57 -52 -111l-73 -124h173z" />
    <glyph glyph-name="B" unicode="B" horiz-adv-x="598" 
d="M32 0l120 680h224c119 0 183 -74 183 -170c0 -64 -34 -121 -110 -144c67 -22 111 -76 111 -148c0 -130 -96 -218 -241 -218h-287zM244 427h100c47 0 78 26 78 73c0 36 -24 61 -63 61h-91zM190 119h123c66 0 106 39 106 104c0 55 -30 89 -91 89h-104z" />
    <glyph glyph-name="C" unicode="C" horiz-adv-x="707" 
d="M393 -9c-187 0 -325 147 -325 335c0 210 166 362 359 362c133 0 208 -47 271 -140l-112 -73c-33 53 -83 91 -163 91c-126 0 -212 -108 -212 -241c0 -125 82 -212 187 -212c78 0 131 33 167 78l103 -79c-61 -72 -142 -121 -275 -121z" />
    <glyph glyph-name="D" unicode="D" horiz-adv-x="667" 
d="M32 0l120 680h178c201 0 319 -124 319 -314c0 -230 -160 -366 -385 -366h-232zM190 120h77c162 0 240 108 240 252c0 114 -60 188 -194 188h-45z" />
    <glyph glyph-name="E" unicode="E" horiz-adv-x="576" 
d="M32 0l120 680h441l-21 -120h-305l-39 -220h267l-21 -118h-267l-18 -102h319l-22 -120h-454z" />
    <glyph glyph-name="F" unicode="F" horiz-adv-x="542" 
d="M32 0l120 680h429l-21 -120h-292l-40 -228h265l-22 -122h-265l-37 -210h-137z" />
    <glyph glyph-name="G" unicode="G" horiz-adv-x="747" 
d="M421 -9c-220 0 -349 138 -349 336c0 221 171 361 364 361c129 0 195 -35 250 -89l-96 -93c-33 32 -79 60 -157 60c-124 0 -220 -90 -220 -238c0 -131 74 -216 210 -216c45 0 88 8 127 26l19 107h-161l21 119h286l-53 -303c-51 -35 -133 -70 -241 -70z" />
    <glyph glyph-name="H" unicode="H" horiz-adv-x="695" 
d="M512 332l62 348h137l-120 -680h-137l37 211h-285l-37 -211h-137l120 680h137l-61 -348h284z" />
    <glyph glyph-name="I" unicode="I" horiz-adv-x="281" 
d="M36 0l120 680h137l-120 -680h-137z" />
    <glyph glyph-name="J" unicode="J" horiz-adv-x="486" 
d="M198 -9c-108 0 -173 63 -199 129l119 65c17 -37 37 -71 83 -71c43 0 70 16 83 90l84 476h137l-87 -493c-25 -144 -99 -196 -220 -196z" />
    <glyph glyph-name="K" unicode="K" horiz-adv-x="636" 
d="M208 313c26 42 63 100 95 136l207 231h159l-281 -312l197 -368h-152l-147 277l-83 -84l-34 -193h-137l120 680h137l-39 -220c-8 -47 -30 -112 -42 -147z" />
    <glyph glyph-name="L" unicode="L" horiz-adv-x="544" 
d="M32 0l120 680h137l-99 -560h302l-21 -120h-439z" />
    <glyph glyph-name="M" unicode="M" horiz-adv-x="810" 
d="M32 0l121 687h10l255 -370l396 370h12l-121 -687h-131l45 255c8 46 27 124 27 124s-46 -63 -86 -101l-159 -151h-11l-106 151c-27 38 -61 101 -61 101s-7 -78 -15 -124l-45 -255h-131z" />
    <glyph glyph-name="N" unicode="N" horiz-adv-x="683" 
d="M565 -6l-276 331c-31 38 -63 98 -63 98s-4 -77 -13 -125l-53 -298h-128l121 686h13l277 -332c31 -37 63 -98 63 -98s3 72 12 125l53 299h128l-121 -686h-13z" />
    <glyph glyph-name="O" unicode="O" horiz-adv-x="780" 
d="M398 -9c-187 0 -330 140 -330 337c0 221 166 360 361 360c187 0 331 -140 331 -337c0 -221 -167 -360 -362 -360zM403 113c131 0 216 95 216 241c0 129 -80 212 -194 212c-131 0 -216 -95 -216 -241c0 -129 80 -212 194 -212z" />
    <glyph glyph-name="P" unicode="P" horiz-adv-x="583" 
d="M196 155l-27 -155h-137l120 680h164c173 0 272 -98 272 -245c0 -177 -126 -280 -322 -280h-70zM217 274h53c122 0 177 60 177 161c0 79 -44 126 -143 126h-36z" />
    <glyph glyph-name="Q" unicode="Q" horiz-adv-x="780" 
d="M649 89l75 -98l-102 -79l-82 107c-43 -20 -89 -28 -142 -28c-187 0 -330 140 -330 337c0 221 166 360 361 360c187 0 331 -140 331 -337c0 -108 -44 -198 -111 -262zM465 117l-69 91l102 79l76 -100c30 40 45 96 45 167c0 129 -80 212 -194 212
c-131 0 -216 -95 -216 -241c0 -129 80 -215 194 -215c22 0 43 2 62 7z" />
    <glyph glyph-name="R" unicode="R" horiz-adv-x="602" 
d="M426 204l108 -204h-144l-90 170c-10 -1 -20 -1 -31 -1h-70l-30 -169h-137l120 680h151c175 0 278 -89 278 -242c0 -100 -47 -195 -155 -234zM219 287h52c107 0 169 47 169 151c0 89 -55 123 -151 123h-22z" />
    <glyph glyph-name="S" unicode="S" horiz-adv-x="526" 
d="M251 -9c-128 0 -217 74 -250 138l108 73c27 -44 73 -91 142 -91c57 0 97 28 97 72c0 38 -24 56 -85 96l-32 21c-86 56 -128 111 -128 200c0 102 70 188 212 188c84 0 144 -33 185 -85l-98 -84c-26 32 -51 51 -94 51c-48 0 -70 -30 -70 -64s19 -55 70 -87l33 -21
c91 -58 147 -107 147 -205c0 -135 -103 -202 -237 -202z" />
    <glyph glyph-name="T" unicode="T" horiz-adv-x="575" 
d="M184 0l99 560h-191l21 120h518l-21 -120h-189l-99 -560h-138z" />
    <glyph glyph-name="U" unicode="U" horiz-adv-x="669" 
d="M323 -9c-163 0 -276 110 -246 279l72 410h138l-74 -420c-17 -96 25 -147 117 -147c85 0 127 44 143 133l77 434h138l-81 -456c-28 -156 -131 -233 -284 -233z" />
    <glyph glyph-name="V" unicode="V" horiz-adv-x="647" 
d="M297 -6l-194 686h139l69 -255c17 -63 30 -172 30 -172s43 104 78 165l151 262h142l-401 -686h-14z" />
    <glyph glyph-name="W" unicode="W" horiz-adv-x="934" 
d="M231 -6l-128 686h142l45 -264c9 -53 15 -137 15 -137s32 78 64 128l177 279h14l74 -271c14 -50 28 -136 28 -136s27 79 53 128l144 273h140l-366 -686h-13l-88 320c-12 45 -21 118 -21 118s-31 -69 -57 -110l-210 -328h-13z" />
    <glyph glyph-name="X" unicode="X" horiz-adv-x="642" 
d="M-13 0l284 374l-127 306h148l44 -110c16 -40 30 -109 30 -109s30 64 58 102l87 117h149l-232 -307l155 -373h-148l-70 175c-16 39 -31 111 -31 111s-33 -67 -62 -105l-136 -181h-149z" />
    <glyph glyph-name="Y" unicode="Y" horiz-adv-x="664" 
d="M272 217l-170 463h145l78 -219c18 -52 32 -135 32 -135s37 85 72 135l152 219h149l-320 -457l-39 -223h-137z" />
    <glyph glyph-name="Z" unicode="Z" horiz-adv-x="595" 
d="M2 0v12l389 549h-253l21 119h462v-12l-390 -549h291l-21 -119h-499z" />
    <glyph glyph-name="bracketleft" unicode="[" horiz-adv-x="330" 
d="M0 -128l150 850h242l-19 -111h-110l-111 -628h110l-20 -111h-242z" />
    <glyph glyph-name="backslash" unicode="\" horiz-adv-x="396" 
d="M227 -128l-129 850h124l129 -850h-124z" />
    <glyph glyph-name="bracketright" unicode="]" horiz-adv-x="330" 
d="M-30 -128l20 111h110l111 628h-110l19 111h242l-150 -850h-242z" />
    <glyph glyph-name="asciicircum" unicode="^" horiz-adv-x="430" 
d="M96 447l199 240h10l115 -240h-102l-45 76l-69 -76h-108z" />
    <glyph glyph-name="underscore" unicode="_" horiz-adv-x="277" 
d="M-61 -128l21 117h281l-21 -117h-281z" />
    <glyph glyph-name="quoteleft" unicode="&#x2018;" horiz-adv-x="239" 
d="M170 412c-42 0 -77 33 -77 79c0 31 14 56 33 83l74 106h64l-59 -120c26 -15 42 -37 42 -71c0 -44 -35 -77 -77 -77z" />
    <glyph glyph-name="a" unicode="a" horiz-adv-x="532" 
d="M200 -9c-92 0 -167 79 -167 204c0 154 94 240 202 240c58 0 108 -22 137 -77l9 68h132l-53 -302c-3 -18 3 -25 18 -25h30l-17 -99h-50c-96 0 -109 25 -116 59l-1 5c-33 -49 -65 -73 -124 -73zM253 105c56 0 94 48 94 116c0 60 -29 99 -82 99c-58 0 -94 -47 -94 -119
c0 -60 30 -96 82 -96z" />
    <glyph glyph-name="b" unicode="b" horiz-adv-x="536" 
d="M304 -9c-65 0 -116 28 -146 88l-10 -79h-132l127 722h132l-62 -353c29 39 67 66 121 66c96 0 172 -79 172 -204c0 -148 -95 -240 -202 -240zM269 105c61 0 99 47 99 119c0 60 -33 96 -87 96c-59 0 -99 -48 -99 -116c0 -60 32 -99 87 -99z" />
    <glyph glyph-name="c" unicode="c" horiz-adv-x="455" 
d="M259 -9c-131 0 -224 85 -224 218c0 134 101 226 235 226c86 0 144 -36 179 -85l-97 -76c-18 29 -47 46 -83 46c-59 0 -97 -47 -97 -111c0 -63 28 -104 87 -104c40 0 63 17 81 32l76 -87c-35 -35 -85 -59 -157 -59z" />
    <glyph glyph-name="d" unicode="d" horiz-adv-x="542" 
d="M205 -9c-95 0 -172 79 -172 204c0 154 96 240 207 240c61 0 110 -22 140 -72l63 359h132l-105 -598c-3 -18 3 -25 18 -25h30l-17 -99h-50c-96 0 -111 26 -116 61l-1 7c-28 -50 -69 -77 -129 -77zM258 105c59 0 99 48 99 116c0 60 -32 99 -87 99c-61 0 -99 -47 -99 -119
c0 -60 33 -96 87 -96z" />
    <glyph glyph-name="e" unicode="e" horiz-adv-x="515" 
d="M173 162c14 -41 49 -63 105 -63c48 0 78 18 101 36l80 -84c-46 -38 -100 -60 -182 -60c-155 0 -241 94 -241 219c0 136 101 225 229 225c151 0 217 -98 224 -239zM168 236l177 19c-3 46 -30 75 -79 75c-56 0 -91 -30 -98 -94z" />
    <glyph glyph-name="f" unicode="f" horiz-adv-x="372" 
d="M120 317h-70l19 109h70l27 152c18 101 68 157 169 157c57 0 96 -20 125 -54l-77 -87c-10 14 -21 23 -42 23c-22 0 -38 -10 -44 -42l-26 -149h110l-19 -109h-110l-73 -414c-18 -104 -58 -115 -147 -115h-69l19 99h40c15 0 23 4 27 25z" />
    <glyph glyph-name="g" unicode="g" horiz-adv-x="535" 
d="M198 -222c-104 0 -175 44 -207 82l88 85c27 -31 62 -55 120 -55c61 0 104 35 118 111l10 56c-27 -38 -61 -66 -121 -66c-95 0 -172 79 -172 204c0 154 96 240 207 240c61 0 113 -22 142 -77l9 68h132l-78 -444c-26 -151 -127 -204 -248 -204zM259 105c59 0 99 48 99 116
c0 60 -32 99 -87 99c-61 0 -99 -47 -99 -119c0 -60 33 -96 87 -96z" />
    <glyph glyph-name="h" unicode="h" horiz-adv-x="525" 
d="M16 0l127 722h132l-65 -369c34 53 74 82 135 82c93 0 149 -79 128 -199l-20 -112c-3 -18 3 -25 18 -25h30l-17 -99h-43c-91 0 -136 31 -119 128l18 104c10 57 -13 86 -60 86c-53 0 -80 -26 -91 -87l-41 -231h-132z" />
    <glyph glyph-name="i" unicode="i" horiz-adv-x="260" 
d="M190 500c-44 0 -82 33 -82 82c0 48 37 81 81 81c45 0 83 -33 83 -81c0 -49 -37 -82 -82 -82zM156 0c-96 0 -131 22 -113 123l53 303h132l-53 -302c-3 -18 3 -25 18 -25h30l-17 -99h-50z" />
    <glyph glyph-name="j" unicode="j" horiz-adv-x="257" 
d="M190 500c-44 0 -82 33 -82 82c0 48 37 81 81 81c45 0 83 -33 83 -81c0 -49 -37 -82 -82 -82zM-17 -222c-62 0 -96 21 -120 48l68 82c11 -12 26 -18 41 -18c20 0 32 12 36 37l88 499h132l-87 -494c-17 -98 -66 -154 -158 -154z" />
    <glyph glyph-name="k" unicode="k" horiz-adv-x="491" 
d="M170 125l-22 -125h-132l127 722h132l-65 -368c-6 -34 -15 -68 -24 -97l161 169h150l-173 -177l62 -125c11 -22 18 -25 34 -25h31l-17 -99h-48c-75 0 -94 26 -123 85l-42 85z" />
    <glyph glyph-name="l" unicode="l" horiz-adv-x="260" 
d="M156 0c-96 0 -131 22 -113 123l105 599h132l-105 -598c-3 -18 3 -25 18 -25h38l-17 -99h-58z" />
    <glyph glyph-name="m" unicode="m" horiz-adv-x="774" 
d="M16 0l75 426h132l-15 -69c34 53 72 78 131 78c54 0 94 -30 112 -80c42 63 93 80 147 80c94 0 145 -79 124 -199l-20 -112c-3 -18 3 -25 18 -25h30l-17 -99h-50c-96 0 -131 22 -113 123l19 109c10 57 -5 86 -49 86c-50 0 -73 -26 -84 -87l-41 -231h-132l41 232
c10 57 -5 86 -50 86c-51 0 -74 -26 -85 -87l-41 -231h-132z" />
    <glyph glyph-name="n" unicode="n" horiz-adv-x="525" 
d="M16 0l75 426h132l-16 -77c34 56 77 86 138 86c93 0 149 -79 128 -199l-20 -112c-3 -18 3 -25 18 -25h30l-17 -99h-50c-96 0 -131 22 -113 123l19 109c10 57 -13 86 -60 86c-53 0 -80 -26 -91 -87l-41 -231h-132z" />
    <glyph glyph-name="o" unicode="o" horiz-adv-x="530" 
d="M260 -9c-126 0 -225 91 -225 216c0 138 105 228 237 228c126 0 225 -89 225 -217c0 -138 -105 -227 -237 -227zM264 103c60 0 97 47 97 116c0 62 -36 102 -93 102c-60 0 -97 -47 -97 -116c0 -62 36 -102 93 -102z" />
    <glyph glyph-name="p" unicode="p" horiz-adv-x="536" 
d="M-21 -212l112 638h132l-14 -62c32 44 71 71 125 71c96 0 172 -79 172 -204c0 -148 -95 -240 -202 -240c-65 0 -113 27 -143 83l-50 -286h-132zM269 105c61 0 99 47 99 119c0 60 -33 96 -87 96c-59 0 -99 -48 -99 -116c0 -60 32 -99 87 -99z" />
    <glyph glyph-name="q" unicode="q" horiz-adv-x="539" 
d="M413 -212c-96 0 -131 22 -113 123l26 146c-27 -38 -61 -66 -121 -66c-95 0 -172 79 -172 204c0 154 96 240 207 240c61 0 113 -22 142 -77l9 68h132l-91 -514c-3 -18 3 -25 18 -25h30l-17 -99h-50zM258 105c59 0 99 48 99 116c0 60 -32 99 -87 99c-61 0 -99 -47 -99 -119
c0 -60 33 -96 87 -96z" />
    <glyph glyph-name="r" unicode="r" horiz-adv-x="379" 
d="M16 0l75 426h132l-17 -82c42 73 85 91 131 91c30 0 48 -8 64 -17l-50 -121c-16 10 -34 14 -55 14c-58 0 -98 -24 -115 -122l-33 -189h-132z" />
    <glyph glyph-name="s" unicode="s" horiz-adv-x="413" 
d="M186 -9c-87 0 -149 36 -182 88l91 64c24 -34 51 -49 94 -49c40 0 51 12 51 26c0 18 -17 20 -80 49c-58 27 -97 62 -97 129c0 89 68 137 160 137c67 0 117 -26 149 -63l-86 -72c-15 19 -31 34 -63 34c-23 0 -39 -10 -39 -26s17 -24 61 -43c72 -31 120 -59 120 -140
c0 -79 -60 -134 -179 -134z" />
    <glyph glyph-name="t" unicode="t" horiz-adv-x="362" 
d="M112 317h-62l19 109h62l39 222h131l-39 -222h103l-19 -109h-103l-28 -161c-8 -43 4 -53 25 -53c20 0 36 9 46 15l42 -93c-23 -17 -52 -34 -111 -34c-84 0 -156 38 -133 169z" />
    <glyph glyph-name="u" unicode="u" horiz-adv-x="528" 
d="M176 -9c-93 0 -149 79 -128 199l41 236h133l-41 -232c-10 -57 13 -86 60 -86c53 0 80 26 91 87l41 231h132l-53 -302c-3 -18 3 -25 18 -25h30l-17 -99h-50c-96 0 -111 26 -116 61l-1 7c-38 -54 -79 -77 -140 -77z" />
    <glyph glyph-name="v" unicode="v" horiz-adv-x="479" 
d="M220 -9l-173 435h138l44 -124c15 -41 25 -103 25 -103s24 63 47 103l70 124h138l-276 -435h-13z" />
    <glyph glyph-name="w" unicode="w" horiz-adv-x="675" 
d="M188 -11l-140 437h138l36 -122c10 -36 20 -91 20 -91s24 56 46 91l84 133h10l55 -133c15 -35 26 -91 26 -91s24 57 42 91l64 122h136l-248 -437h-11l-68 170c-12 30 -22 85 -22 85s-18 -49 -38 -78l-119 -177h-11z" />
    <glyph glyph-name="x" unicode="x" horiz-adv-x="500" 
d="M-20 0l194 223l-105 203h145l23 -53c10 -23 23 -73 23 -73s20 50 38 72l44 54h150l-167 -192l122 -234h-146l-33 70c-15 31 -31 87 -31 87s-24 -57 -47 -84l-61 -73h-149z" />
    <glyph glyph-name="y" unicode="y" horiz-adv-x="518" 
d="M182 -222c-87 0 -152 31 -193 82l87 84c23 -30 58 -55 110 -55c59 0 97 32 110 102l12 66c-36 -46 -75 -66 -132 -66c-93 0 -149 79 -128 199l41 236h133l-41 -232c-10 -57 13 -86 60 -86c53 0 80 26 91 87l41 231h132l-79 -450c-25 -141 -118 -198 -244 -198z" />
    <glyph glyph-name="z" unicode="z" horiz-adv-x="437" 
d="M-1 0v11l224 307h-160l19 108h362v-11l-224 -307h164l-19 -108h-366z" />
    <glyph glyph-name="braceleft" unicode="{" horiz-adv-x="406" 
d="M241 -128c-79 0 -155 40 -135 155l23 133c8 48 -3 61 -39 61h-62l20 111h59c39 0 54 10 65 71l32 180c19 105 75 139 152 139h111l-19 -111h-71c-26 0 -36 -12 -40 -37l-35 -201c-13 -77 -53 -94 -110 -101c54 -8 84 -42 72 -111l-25 -142c-4 -22 -1 -36 29 -36h69
l-20 -111h-76z" />
    <glyph glyph-name="bar" unicode="|" horiz-adv-x="272" 
d="M13 -128l150 850h127l-150 -850h-127z" />
    <glyph glyph-name="braceright" unicode="}" horiz-adv-x="406" 
d="M-33 -128l19 111h71c26 0 36 12 40 37l28 159c13 77 53 94 110 101c-54 8 -84 42 -72 111l32 184c4 22 1 36 -29 36h-69l20 111h76c79 0 155 -40 135 -155l-31 -175c-9 -48 4 -61 40 -61h62l-20 -111h-59c-39 0 -55 -10 -66 -71l-24 -138c-18 -104 -75 -139 -152 -139
h-111z" />
    <glyph glyph-name="asciitilde" unicode="~" horiz-adv-x="369" 
d="M115 207l-87 9c12 94 59 140 114 140c28 0 47 -9 63 -20c21 -14 32 -25 45 -25c18 0 26 15 31 45l87 -9c-10 -94 -58 -140 -114 -140c-27 0 -47 9 -63 20c-21 14 -31 25 -45 25c-17 0 -26 -15 -31 -45z" />
    <glyph glyph-name="exclamdown" unicode="&#xa1;" horiz-adv-x="269" 
d="M205 520c-44 0 -82 35 -82 83c0 49 38 83 82 83s81 -34 81 -83c0 -48 -37 -83 -81 -83zM24 0l109 449h102l-63 -449h-148z" />
    <glyph glyph-name="cent" unicode="&#xa2;" horiz-adv-x="455" 
d="M189 0c-93 26 -154 103 -154 209c0 133 99 224 231 226l19 106h65l-20 -112c54 -11 92 -39 120 -79l-98 -74c-10 17 -25 30 -42 39l-38 -213c33 3 52 20 68 33l76 -85c-38 -38 -85 -59 -157 -59h-6l-19 -107h-65zM246 322c-47 -9 -77 -49 -77 -113c0 -43 13 -77 40 -95z
" />
    <glyph glyph-name="sterling" unicode="&#xa3;" horiz-adv-x="567" 
d="M185 248h-102l17 99h66c-5 29 -9 57 -9 83c0 114 81 188 211 188c95 0 153 -44 188 -110l-106 -65c-21 36 -41 58 -83 58c-46 0 -76 -32 -76 -80c0 -25 2 -49 5 -74h138l-17 -99h-109c1 -16 2 -33 2 -50c0 -27 -4 -52 -11 -75c22 -12 45 -21 71 -21c34 0 63 18 86 42
l74 -80c-41 -50 -97 -73 -162 -73c-52 0 -90 21 -122 46c-31 -29 -73 -46 -122 -46c-80 0 -123 49 -123 105c0 72 56 107 120 107c27 0 50 -6 71 -16c-1 20 -4 40 -7 61zM178 99c-18 15 -35 26 -54 26c-18 0 -32 -11 -32 -27c0 -17 12 -29 34 -29c24 0 41 11 52 30z" />
    <glyph glyph-name="fraction" unicode="&#x2044;" horiz-adv-x="414" 
d="M-56 0l414 522h132l-415 -522h-131z" />
    <glyph glyph-name="fraction" unicode="&#x2215;" horiz-adv-x="414" 
d="M-56 0l414 522h132l-415 -522h-131z" />
    <glyph glyph-name="yen" unicode="&#xa5;" horiz-adv-x="561" 
d="M207 182l-22 59h-131l14 83h85l-73 198h140l49 -156c14 -45 22 -112 22 -112s22 63 53 109l107 159h142l-145 -198h86l-14 -83h-132l-43 -59h164l-14 -83h-167l-17 -99h-134l18 99h-166l14 83h164z" />
    <glyph glyph-name="florin" unicode="&#x192;" horiz-adv-x="400" 
d="M110 184h-70l19 105h70l31 176c19 108 72 153 160 153c67 0 105 -27 132 -65l-84 -73c-10 15 -21 24 -41 24c-22 0 -33 -12 -39 -43l-30 -172h105l-19 -105h-105l-69 -396h-129z" />
    <glyph glyph-name="section" unicode="&#xa7;" horiz-adv-x="515" 
d="M147 388c-12 22 -18 48 -18 79c0 92 80 151 173 151s142 -36 169 -99l-106 -52c-11 28 -27 46 -60 46c-36 0 -51 -20 -51 -43c0 -20 6 -33 32 -45l97 -44c80 -35 111 -80 111 -144c0 -67 -40 -104 -105 -125c10 -19 15 -42 15 -69c0 -91 -66 -146 -188 -146
c-99 0 -168 48 -189 107l107 52c12 -30 35 -53 79 -53c39 0 57 14 57 35c0 17 -9 29 -34 40l-88 38c-79 34 -111 79 -111 145c0 77 53 115 110 127zM335 168c24 8 36 25 36 47c0 24 -12 43 -43 57l-95 43c-14 6 -26 13 -37 21c-22 -8 -38 -25 -38 -51c0 -27 12 -42 42 -55
l90 -39c16 -7 31 -14 45 -23z" />
    <glyph glyph-name="currency" unicode="&#xa4;" horiz-adv-x="590" 
d="M90 283h-58l15 82h64c43 103 144 166 249 166c94 0 158 -28 212 -100l-99 -68c-25 36 -53 53 -111 53c-44 0 -83 -17 -108 -51h135l-15 -82h-150c0 -9 -1 -19 -1 -29v-17h144l-14 -82h-105c21 -33 56 -51 103 -51c48 0 78 17 106 48l89 -73c-49 -62 -111 -88 -197 -88
c-114 0 -206 65 -243 164h-95l14 82h64v16c0 10 0 20 1 30z" />
    <glyph glyph-name="quotesingle" unicode="'" horiz-adv-x="211" 
d="M90 433l29 247h141l-62 -247h-108z" />
    <glyph glyph-name="quotedblleft" unicode="&#x201c;" horiz-adv-x="452" 
d="M382 412c-42 0 -77 33 -77 79c0 31 14 56 33 83l74 106h64l-59 -120c26 -15 42 -37 42 -71c0 -44 -35 -77 -77 -77zM170 412c-42 0 -77 33 -77 79c0 31 14 56 33 83l74 106h64l-59 -120c26 -15 42 -37 42 -71c0 -44 -35 -77 -77 -77z" />
    <glyph glyph-name="guillemotleft" unicode="&#xab;" horiz-adv-x="500" 
d="M313 32l-72 164v8l123 169h133l-128 -175l73 -166h-129zM103 32l-72 164v8l123 169h133l-128 -175l73 -166h-129z" />
    <glyph glyph-name="guilsinglleft" unicode="&#x2039;" horiz-adv-x="290" 
d="M103 32l-72 164v8l123 169h133l-128 -175l73 -166h-129z" />
    <glyph glyph-name="guilsinglright" unicode="&#x203a;" horiz-adv-x="290" 
d="M3 32l128 175l-73 166h129l72 -164v-8l-123 -169h-133z" />
    <glyph glyph-name="endash" unicode="&#x2013;" horiz-adv-x="398" 
d="M23 171l21 116h339l-21 -116h-339z" />
    <glyph glyph-name="dagger" unicode="&#x2020;" horiz-adv-x="355" 
d="M166 475h-88l19 108h88l17 97h119l-17 -97h88l-19 -108h-88l-41 -233h-119z" />
    <glyph glyph-name="daggerdbl" unicode="&#x2021;" horiz-adv-x="355" 
d="M168 486h-88l17 97h88l18 97h119l-17 -97h87l-17 -97h-88l-9 -51h88l-17 -97h-88l-17 -97h-119l17 97h-88l17 97h88z" />
    <glyph glyph-name="periodcentered" unicode="&#xb7;" 
d="M131 173c-45 0 -83 35 -83 85c0 49 38 84 83 84s83 -35 83 -84c0 -50 -38 -85 -83 -85z" />
    <glyph glyph-name="periodcentered" unicode="&#x2219;" 
d="M131 173c-45 0 -83 35 -83 85c0 49 38 84 83 84s83 -35 83 -84c0 -50 -38 -85 -83 -85z" />
    <glyph glyph-name="paragraph" unicode="&#xb6;" horiz-adv-x="694" 
d="M306 243h-8c-143 0 -222 90 -222 202c0 126 89 235 253 235h379l-120 -680h-130l100 566h-65l-100 -566h-130zM326 357l37 209h-41c-53 0 -102 -37 -102 -114c0 -67 40 -95 87 -95h19z" />
    <glyph glyph-name="bullet" unicode="&#x2022;" horiz-adv-x="268" 
d="M142 145c-55 0 -104 47 -104 108c0 62 49 108 104 108c56 0 106 -46 106 -108c0 -61 -50 -108 -106 -108z" />
    <glyph glyph-name="quotesinglbase" unicode="&#x201a;" horiz-adv-x="239" 
d="M5 -103l59 120c-26 15 -42 37 -42 71c0 44 35 77 77 77s77 -33 77 -79c0 -31 -14 -56 -33 -83l-74 -106h-64z" />
    <glyph glyph-name="quotedblbase" unicode="&#x201e;" horiz-adv-x="451" 
d="M217 -103l59 120c-26 15 -42 37 -42 71c0 44 35 77 77 77s77 -33 77 -79c0 -31 -14 -56 -33 -83l-74 -106h-64zM5 -103l59 120c-26 15 -42 37 -42 71c0 44 35 77 77 77s77 -33 77 -79c0 -31 -14 -56 -33 -83l-74 -106h-64z" />
    <glyph glyph-name="quotedblright" unicode="&#x201d;" horiz-adv-x="451" 
d="M309 420l59 120c-26 15 -42 37 -42 71c0 44 35 77 77 77s77 -33 77 -79c0 -31 -14 -56 -33 -83l-74 -106h-64zM97 420l59 120c-26 15 -42 37 -42 71c0 44 35 77 77 77s77 -33 77 -79c0 -31 -14 -56 -33 -83l-74 -106h-64z" />
    <glyph glyph-name="guillemotright" unicode="&#xbb;" horiz-adv-x="500" 
d="M213 32l128 175l-73 166h129l72 -164v-8l-123 -169h-133zM3 32l128 175l-73 166h129l72 -164v-8l-123 -169h-133z" />
    <glyph glyph-name="ellipsis" unicode="&#x2026;" horiz-adv-x="714" 
d="M572 -6c-44 0 -81 34 -81 83c0 48 37 83 81 83s81 -35 81 -83c0 -49 -37 -83 -81 -83zM335 -6c-44 0 -81 34 -81 83c0 48 37 83 81 83s81 -35 81 -83c0 -49 -37 -83 -81 -83zM98 -6c-44 0 -81 34 -81 83c0 48 37 83 81 83s81 -35 81 -83c0 -49 -37 -83 -81 -83z" />
    <glyph glyph-name="perthousand" unicode="&#x2030;" horiz-adv-x="1236" 
d="M213 217c-94 0 -158 69 -158 153c0 96 74 161 163 161c94 0 158 -66 158 -150c0 -96 -74 -164 -163 -164zM175 0l419 522h127l-419 -522h-127zM1038 -9c-94 0 -158 69 -158 153c0 96 74 161 163 161c94 0 158 -66 158 -150c0 -96 -74 -164 -163 -164zM678 -9
c-94 0 -158 69 -158 153c0 96 74 161 163 161c94 0 158 -66 158 -150c0 -96 -74 -164 -163 -164zM214 314c29 0 53 26 53 63c0 39 -23 57 -49 57c-29 0 -53 -23 -53 -63c0 -36 23 -57 49 -57zM1039 88c29 0 53 26 53 63c0 39 -23 57 -49 57c-29 0 -53 -23 -53 -63
c0 -36 23 -57 49 -57zM679 88c29 0 53 26 53 63c0 39 -23 57 -49 57c-29 0 -53 -23 -53 -63c0 -36 23 -57 49 -57z" />
    <glyph glyph-name="questiondown" unicode="&#xbf;" horiz-adv-x="503" 
d="M313 522c-44 0 -82 35 -82 83c0 49 38 83 82 83s81 -34 81 -83c0 -48 -37 -83 -81 -83zM249 -6c-139 0 -211 91 -211 201s80 181 178 194l11 62h123l-28 -159h-35c-82 0 -116 -44 -116 -98c0 -48 29 -83 80 -83c47 0 78 26 103 65l102 -60c-35 -68 -112 -122 -207 -122z
" />
    <glyph glyph-name="grave" unicode="`" horiz-adv-x="490" 
d="M226 500l-91 188h152l39 -188h-100z" />
    <glyph glyph-name="acute" unicode="&#xb4;" horiz-adv-x="490" 
d="M230 500l80 188h158l-136 -188h-102z" />
    <glyph glyph-name="circumflex" unicode="&#x2c6;" horiz-adv-x="490" 
d="M136 500l193 216h11l117 -216h-102l-43 72l-67 -72h-109z" />
    <glyph glyph-name="tilde" unicode="&#x2dc;" horiz-adv-x="490" 
d="M224 500l-87 9c12 94 59 140 114 140c28 0 47 -9 63 -20c21 -14 32 -25 45 -25c18 0 26 15 31 45l87 -9c-10 -94 -58 -140 -114 -140c-27 0 -47 9 -63 20c-21 14 -31 25 -45 25c-17 0 -26 -15 -31 -45z" />
    <glyph glyph-name="macron" unicode="&#xaf;" horiz-adv-x="490" 
d="M184 529l17 96h240l-17 -96h-240z" />
    <glyph glyph-name="macron" unicode="&#x2c9;" horiz-adv-x="490" 
d="M184 529l17 96h240l-17 -96h-240z" />
    <glyph glyph-name="breve" unicode="&#x2d8;" horiz-adv-x="490" 
d="M287 500c-94 0 -150 60 -154 140l101 15c3 -34 18 -57 54 -57s53 23 60 57l99 -15c-12 -80 -68 -140 -160 -140z" />
    <glyph glyph-name="dotaccent" unicode="&#x2d9;" horiz-adv-x="490" 
d="M311 508c-37 0 -72 33 -72 74s35 74 72 74c38 0 73 -33 73 -74s-35 -74 -73 -74z" />
    <glyph glyph-name="dieresis" unicode="&#xa8;" horiz-adv-x="490" 
d="M417 508c-37 0 -73 33 -73 74s36 74 73 74c38 0 72 -33 72 -74s-34 -74 -72 -74zM207 508c-37 0 -72 33 -72 74s35 74 72 74c38 0 73 -33 73 -74s-35 -74 -73 -74z" />
    <glyph glyph-name="ring" unicode="&#x2da;" horiz-adv-x="490" 
d="M314 474c-71 0 -125 55 -125 119c0 65 54 119 125 119s125 -54 125 -119c0 -64 -54 -119 -125 -119zM314 547c23 0 42 17 42 46s-19 46 -42 46s-42 -17 -42 -46s19 -46 42 -46z" />
    <glyph glyph-name="cedilla" unicode="&#xb8;" horiz-adv-x="490" 
d="M200 -240c-63 0 -99 26 -117 62l65 36c8 -14 19 -28 44 -28c23 0 38 12 38 36c0 22 -13 37 -42 37h-35l17 97h71l-7 -41c37 -6 75 -38 75 -94c0 -68 -52 -105 -109 -105z" />
    <glyph glyph-name="hungarumlaut" unicode="&#x2dd;" horiz-adv-x="490" 
d="M310 500l86 188h138l-122 -188h-102zM129 500l86 188h138l-122 -188h-102z" />
    <glyph glyph-name="ogonek" unicode="&#x2db;" horiz-adv-x="490" 
d="M200 -240c-55 0 -108 30 -108 94c0 45 23 80 53 107l43 39h77l-55 -70c-24 -31 -32 -45 -32 -70c0 -19 11 -29 28 -29c19 0 29 13 40 28l65 -38c-20 -35 -52 -61 -111 -61z" />
    <glyph glyph-name="caron" unicode="&#x2c7;" horiz-adv-x="490" 
d="M288 480l-117 217h102l43 -73l67 73h109l-193 -217h-11z" />
    <glyph glyph-name="emdash" unicode="&#x2014;" horiz-adv-x="644" 
d="M23 171l21 116h585l-21 -116h-585z" />
    <glyph glyph-name="AE" unicode="&#xc6;" horiz-adv-x="967" 
d="M196 77l-64 -77h-152l577 680h428l-21 -120h-305l-39 -220h267l-21 -118h-267l-18 -102h319l-22 -120h-455l14 77h-241zM457 190l33 189c7 41 31 111 31 111s-41 -70 -67 -102l-164 -198h167z" />
    <glyph glyph-name="ordfeminine" unicode="&#xaa;" horiz-adv-x="490" 
d="M205 155c-78 0 -145 67 -145 173c0 131 83 202 175 202c49 0 89 -19 113 -65l8 57h118l-44 -248c-3 -16 3 -22 16 -22h25l-15 -90h-49c-81 0 -92 21 -98 50l-1 5c-26 -41 -53 -62 -103 -62zM250 254c46 0 77 42 77 96c0 48 -23 79 -66 79c-47 0 -77 -38 -77 -96
c0 -47 24 -79 66 -79z" />
    <glyph glyph-name="Lslash" unicode="&#x141;" horiz-adv-x="554" 
d="M219 226l-19 -106h302l-21 -120h-439l31 177l-75 -25l21 120l75 25l68 383h137l-59 -334l189 64l-21 -120z" />
    <glyph glyph-name="Oslash" unicode="&#xd8;" horiz-adv-x="780" 
d="M709 538c32 -53 51 -117 51 -187c0 -221 -167 -360 -357 -360c-84 0 -158 26 -214 72l-80 -73l-71 77l81 74c-33 53 -51 116 -51 187c0 221 166 360 356 360c84 0 157 -26 214 -72l80 73l72 -77zM223 237l319 292c-31 24 -72 37 -120 37c-125 0 -213 -95 -213 -241
c0 -33 5 -62 14 -88zM605 443l-320 -292c32 -25 73 -38 121 -38c126 0 213 95 213 241c0 33 -5 62 -14 89z" />
    <glyph glyph-name="OE" unicode="&#x152;" horiz-adv-x="983" 
d="M388 0c-202 0 -319 126 -319 314c0 221 164 366 385 366h547l-21 -120h-305l-39 -220h267l-21 -118h-267l-18 -102h319l-22 -120h-506zM405 120h55l78 440h-87c-162 0 -240 -108 -240 -252c0 -114 60 -188 194 -188z" />
    <glyph glyph-name="ordmasculine" unicode="&#xba;" horiz-adv-x="468" 
d="M249 152c-108 0 -188 80 -188 185c0 114 94 194 206 194c108 0 188 -81 188 -186c0 -114 -94 -193 -206 -193zM253 253c46 0 77 40 77 96c0 46 -24 80 -67 80c-49 0 -77 -40 -77 -96c0 -48 24 -80 67 -80z" />
    <glyph glyph-name="ae" unicode="&#xe6;" horiz-adv-x="772" 
d="M379 379c35 36 83 56 143 56c151 0 217 -98 224 -239l-316 -34c14 -41 49 -63 105 -63c48 0 78 18 101 36l80 -84c-46 -38 -100 -60 -182 -60c-84 0 -141 29 -175 77c-32 -50 -84 -77 -169 -77c-101 0 -175 43 -175 127c0 99 76 132 184 132h106c4 47 -15 80 -69 80
c-41 0 -77 -16 -98 -34l-70 82c35 31 91 57 174 57c58 0 107 -19 137 -56zM425 236l177 19c-3 46 -30 75 -79 75c-56 0 -91 -30 -98 -94zM292 174h-95c-34 0 -50 -15 -50 -40c0 -23 15 -41 58 -41c48 0 77 19 83 56z" />
    <glyph glyph-name="dotlessi" unicode="&#x131;" horiz-adv-x="260" 
d="M156 0c-96 0 -131 22 -113 123l53 303h132l-53 -302c-3 -18 3 -25 18 -25h30l-17 -99h-50z" />
    <glyph glyph-name="lslash" unicode="&#x142;" horiz-adv-x="291" 
d="M216 263l-24 -139c-3 -18 3 -25 18 -25h38l-17 -99h-58c-96 0 -131 22 -113 123l11 64l-73 -38l23 129l73 38l71 406h132l-58 -330l78 41l-22 -129z" />
    <glyph glyph-name="oslash" unicode="&#xf8;" horiz-adv-x="530" 
d="M469 327c18 -31 28 -68 28 -109c0 -138 -105 -227 -237 -227c-56 0 -107 18 -146 49l-66 -54l-48 63l63 50c-18 31 -28 68 -28 108c0 138 105 228 237 228c56 0 107 -18 146 -49l66 54l46 -63zM166 183l160 129c-16 11 -35 17 -58 17c-64 0 -104 -51 -104 -124
c0 -8 1 -15 2 -22zM366 244l-162 -131c16 -12 37 -18 60 -18c64 0 104 51 104 124c0 9 -1 17 -2 25z" />
    <glyph glyph-name="oe" unicode="&#x153;" horiz-adv-x="840" 
d="M427 68c-36 -49 -94 -77 -167 -77c-126 0 -225 91 -225 216c0 138 106 228 240 228c69 0 122 -29 155 -76c36 48 91 76 160 76c151 0 217 -98 224 -239l-316 -34c14 -41 49 -63 105 -63c48 0 78 18 101 36l80 -84c-46 -38 -100 -60 -182 -60c-84 0 -141 29 -175 77z
M493 236l177 19c-3 46 -30 75 -79 75c-56 0 -91 -30 -98 -94zM264 103c60 0 97 47 97 117c0 61 -36 101 -93 101c-60 0 -97 -47 -97 -116c0 -62 36 -102 93 -102z" />
    <glyph glyph-name="germandbls" unicode="&#xdf;" horiz-adv-x="565" 
d="M423 388c67 -27 110 -81 110 -168c0 -141 -89 -226 -228 -226c-44 0 -80 8 -96 17l28 104c15 -6 33 -10 55 -10c63 0 107 37 107 118c0 72 -41 109 -120 111l18 102c59 4 104 36 104 117c0 49 -29 74 -71 74c-50 0 -77 -31 -89 -101l-110 -623
c-18 -104 -58 -115 -147 -115h-69l19 99h40c15 0 23 4 27 25l110 621c23 131 98 202 222 202c117 0 194 -71 194 -179c0 -80 -41 -136 -104 -168z" />
    <glyph glyph-name="onesuperior" unicode="&#xb9;" 
d="M131 173c-45 0 -83 35 -83 85c0 49 38 84 83 84s83 -35 83 -84c0 -50 -38 -85 -83 -85z" />
    <glyph glyph-name="logicalnot" unicode="&#xac;" 
d="M131 173c-45 0 -83 35 -83 85c0 49 38 84 83 84s83 -35 83 -84c0 -50 -38 -85 -83 -85z" />
    <glyph glyph-name="mu" unicode="&#xb5;" 
d="M131 173c-45 0 -83 35 -83 85c0 49 38 84 83 84s83 -35 83 -84c0 -50 -38 -85 -83 -85z" />
    <glyph glyph-name="mu" unicode="&#x3bc;" 
d="M131 173c-45 0 -83 35 -83 85c0 49 38 84 83 84s83 -35 83 -84c0 -50 -38 -85 -83 -85z" />
    <glyph glyph-name="trademark" unicode="&#x2122;" horiz-adv-x="697" 
d="M365 378l54 306h9l119 -147l171 147h9l-54 -306h-88l21 122l-74 -71h-8l-50 71l-21 -122h-88zM185 606h-80l13 74h249l-13 -74h-79l-40 -228h-90z" />
    <glyph glyph-name="Eth" unicode="&#xd0;" horiz-adv-x="667" 
d="M74 240h-56l21 119h56l57 321h178c201 0 319 -124 319 -314c0 -230 -160 -366 -385 -366h-232zM232 359h150l-21 -119h-150l-21 -120h77c162 0 240 108 240 252c0 114 -60 188 -194 188h-45z" />
    <glyph glyph-name="onehalf" unicode="&#xbd;" 
d="M131 173c-45 0 -83 35 -83 85c0 49 38 84 83 84s83 -35 83 -84c0 -50 -38 -85 -83 -85z" />
    <glyph glyph-name="plusminus" horiz-adv-x="850" 
d="M393 317h-141l-73 -414c-18 -104 -58 -115 -147 -115h-69l19 99h40c15 0 23 4 27 25l71 405h-70l19 109h70l24 132c18 101 66 157 164 157c46 0 79 -13 103 -35l-62 -97c-11 9 -20 14 -35 14c-20 0 -33 -10 -39 -42l-23 -129h141l22 126c21 119 86 183 217 183
c134 0 207 -78 183 -214l-70 -397c-3 -18 3 -25 18 -25h38l-17 -99h-58c-96 0 -131 22 -113 123l71 404c12 67 -9 95 -60 95c-50 0 -69 -26 -79 -85l-20 -111h93l-19 -109h-93l-69 -389c-18 -104 -58 -115 -147 -115h-61l19 99h32c15 0 23 4 27 25z" />
    <glyph glyph-name="Thorn" unicode="&#xde;" horiz-adv-x="583" 
d="M276 607h24c172 0 275 -99 275 -245c0 -183 -124 -280 -319 -280h-73l-14 -82h-137l120 680h137zM204 201h56c121 0 174 52 174 161c0 79 -44 126 -143 126h-36z" />
    <glyph glyph-name="onequarter" unicode="&#xbc;" 
d="M131 173c-45 0 -83 35 -83 85c0 49 38 84 83 84s83 -35 83 -84c0 -50 -38 -85 -83 -85z" />
    <glyph glyph-name="divide" unicode="&#xf7;" 
d="M131 173c-45 0 -83 35 -83 85c0 49 38 84 83 84s83 -35 83 -84c0 -50 -38 -85 -83 -85z" />
    <glyph glyph-name="brokenbar" unicode="&#xa6;" 
d="M131 173c-45 0 -83 35 -83 85c0 49 38 84 83 84s83 -35 83 -84c0 -50 -38 -85 -83 -85z" />
    <glyph glyph-name="degree" unicode="&#xb0;" horiz-adv-x="325" 
d="M196 268c-74 0 -136 56 -136 130c0 79 64 133 140 133c74 0 135 -53 135 -127c0 -79 -63 -136 -139 -136zM197 346c29 0 51 23 51 57c0 33 -21 50 -49 50c-29 0 -51 -22 -51 -56c0 -33 21 -51 49 -51z" />
    <glyph glyph-name="thorn" unicode="&#xfe;" horiz-adv-x="536" 
d="M-21 -212l164 934h132l-63 -358c27 44 62 71 122 71c96 0 172 -79 172 -204c0 -148 -95 -240 -202 -240c-65 0 -113 27 -143 83l-50 -286h-132zM269 105c61 0 99 47 99 119c0 60 -33 96 -87 96c-59 0 -99 -48 -99 -116c0 -60 32 -99 87 -99z" />
    <glyph glyph-name="threequarters" unicode="&#xbe;" 
d="M131 173c-45 0 -83 35 -83 85c0 49 38 84 83 84s83 -35 83 -84c0 -50 -38 -85 -83 -85z" />
    <glyph glyph-name="twosuperior" unicode="&#xb2;" 
d="M131 173c-45 0 -83 35 -83 85c0 49 38 84 83 84s83 -35 83 -84c0 -50 -38 -85 -83 -85z" />
    <glyph glyph-name="registered" unicode="&#xae;" horiz-adv-x="505" 
d="M298 253c-120 0 -216 90 -216 218s96 218 216 218s218 -90 218 -218s-98 -218 -218 -218zM298 300c96 0 167 62 167 171s-71 171 -167 171c-95 0 -165 -62 -165 -171s70 -171 165 -171zM356 429l26 -65h-65l-21 55c1 0 -27 0 -27 0l-10 -55h-64l38 217h80
c59 0 87 -40 87 -80c0 -36 -17 -60 -44 -72zM277 469h33c11 0 26 5 26 29c0 21 -11 28 -24 28h-25z" />
    <glyph glyph-name="minus" unicode="&#x2212;" 
d="M131 173c-45 0 -83 35 -83 85c0 49 38 84 83 84s83 -35 83 -84c0 -50 -38 -85 -83 -85z" />
    <glyph glyph-name="eth" unicode="&#xf0;" horiz-adv-x="526" 
d="M300 526l-60 -47l-49 65l63 50c-18 24 -37 47 -56 70l83 74c23 -21 46 -44 68 -69l66 52l50 -65l-66 -52c60 -89 102 -200 102 -343c0 -172 -92 -270 -241 -270c-125 0 -223 90 -223 223c0 140 110 221 207 221c51 0 83 -13 107 -35c-11 47 -29 88 -51 126zM264 102
c63 0 99 51 99 120c0 61 -35 102 -90 102c-63 0 -100 -46 -100 -114c0 -65 34 -108 91 -108z" />
    <glyph glyph-name="multiply" unicode="&#xd7;" 
d="M131 173c-45 0 -83 35 -83 85c0 49 38 84 83 84s83 -35 83 -84c0 -50 -38 -85 -83 -85z" />
    <glyph glyph-name="threesuperior" unicode="&#xb3;" 
d="M131 173c-45 0 -83 35 -83 85c0 49 38 84 83 84s83 -35 83 -84c0 -50 -38 -85 -83 -85z" />
    <glyph glyph-name="copyright" unicode="&#xa9;" horiz-adv-x="595" 
d="M309 -5c-144 0 -270 113 -270 268s126 268 270 268c142 0 266 -113 266 -268s-124 -268 -266 -268zM309 54c111 0 204 82 204 209s-93 209 -204 209c-114 0 -208 -82 -208 -209s94 -209 208 -209zM316 116c-93 0 -155 59 -155 145c0 92 66 151 153 151
c61 0 101 -28 124 -54l-73 -64c-11 14 -26 22 -45 22c-31 0 -48 -22 -48 -55c0 -30 17 -51 46 -51c22 0 35 9 43 18l68 -61c-23 -27 -62 -51 -113 -51z" />
    <glyph glyph-name="Aacute" unicode="&#xc1;" horiz-adv-x="651" 
d="M358 748l80 188h158l-136 -188h-102zM169 79l-47 -79h-137l414 686h11l184 -686h-139l-20 79h-266zM407 188l-31 123c-14 54 -17 112 -17 112s-20 -57 -52 -111l-73 -124h173z" />
    <glyph glyph-name="Acircumflex" unicode="&#xc2;" horiz-adv-x="651" 
d="M234 748l193 216h11l117 -216h-102l-43 72l-67 -72h-109zM169 79l-47 -79h-137l414 686h11l184 -686h-139l-20 79h-266zM407 188l-31 123c-14 54 -17 112 -17 112s-20 -57 -52 -111l-73 -124h173z" />
    <glyph glyph-name="Adieresis" unicode="&#xc4;" horiz-adv-x="651" 
d="M522 756c-37 0 -73 33 -73 74s36 74 73 74c38 0 72 -33 72 -74s-34 -74 -72 -74zM312 756c-37 0 -72 33 -72 74s35 74 72 74c38 0 73 -33 73 -74s-35 -74 -73 -74zM169 79l-47 -79h-137l414 686h11l184 -686h-139l-20 79h-266zM407 188l-31 123c-14 54 -17 112 -17 112
s-20 -57 -52 -111l-73 -124h173z" />
    <glyph glyph-name="Agrave" unicode="&#xc0;" horiz-adv-x="651" 
d="M351 748l-91 188h152l39 -188h-100zM169 79l-47 -79h-137l414 686h11l184 -686h-139l-20 79h-266zM407 188l-31 123c-14 54 -17 112 -17 112s-20 -57 -52 -111l-73 -124h173z" />
    <glyph glyph-name="Aring" unicode="&#xc5;" horiz-adv-x="651" 
d="M415 722c-71 0 -125 55 -125 119c0 65 54 119 125 119s125 -54 125 -119c0 -64 -54 -119 -125 -119zM169 79l-47 -79h-137l414 686h11l184 -686h-139l-20 79h-266zM415 795c23 0 42 17 42 46s-19 46 -42 46s-42 -17 -42 -46s19 -46 42 -46zM407 188l-31 123
c-14 54 -17 112 -17 112s-20 -57 -52 -111l-73 -124h173z" />
    <glyph glyph-name="Atilde" unicode="&#xc3;" horiz-adv-x="651" 
d="M322 748l-87 9c12 94 59 140 114 140c28 0 47 -9 63 -20c21 -14 32 -25 45 -25c18 0 26 15 31 45l87 -9c-10 -94 -58 -140 -114 -140c-27 0 -47 9 -63 20c-21 14 -31 25 -45 25c-17 0 -26 -15 -31 -45zM169 79l-47 -79h-137l414 686h11l184 -686h-139l-20 79h-266z
M407 188l-31 123c-14 54 -17 112 -17 112s-20 -57 -52 -111l-73 -124h173z" />
    <glyph glyph-name="Ccedilla" unicode="&#xc7;" horiz-adv-x="707" 
d="M330 -3c-154 28 -262 163 -262 329c0 210 166 362 359 362c133 0 208 -47 271 -140l-112 -73c-33 53 -83 91 -163 91c-126 0 -212 -108 -212 -241c0 -125 82 -212 187 -212c78 0 131 33 167 78l103 -79c-60 -71 -139 -119 -268 -121l-5 -32c37 -6 75 -38 75 -94
c0 -68 -52 -105 -109 -105c-63 0 -99 26 -117 62l65 36c8 -14 19 -28 44 -28c23 0 38 12 38 36c0 22 -13 37 -42 37h-35z" />
    <glyph glyph-name="Eacute" unicode="&#xc9;" horiz-adv-x="576" 
d="M326 748l80 188h158l-136 -188h-102zM32 0l120 680h441l-21 -120h-305l-39 -220h267l-21 -118h-267l-18 -102h319l-22 -120h-454z" />
    <glyph glyph-name="Ecircumflex" unicode="&#xca;" horiz-adv-x="576" 
d="M221 748l193 216h11l117 -216h-102l-43 72l-67 -72h-109zM32 0l120 680h441l-21 -120h-305l-39 -220h267l-21 -118h-267l-18 -102h319l-22 -120h-454z" />
    <glyph glyph-name="Edieresis" unicode="&#xcb;" horiz-adv-x="576" 
d="M490 756c-37 0 -73 33 -73 74s36 74 73 74c38 0 72 -33 72 -74s-34 -74 -72 -74zM280 756c-37 0 -72 33 -72 74s35 74 72 74c38 0 73 -33 73 -74s-35 -74 -73 -74zM32 0l120 680h441l-21 -120h-305l-39 -220h267l-21 -118h-267l-18 -102h319l-22 -120h-454z" />
    <glyph glyph-name="Egrave" unicode="&#xc8;" horiz-adv-x="576" 
d="M328 748l-91 188h152l39 -188h-100zM32 0l120 680h441l-21 -120h-305l-39 -220h267l-21 -118h-267l-18 -102h319l-22 -120h-454z" />
    <glyph glyph-name="Iacute" unicode="&#xcd;" horiz-adv-x="281" 
d="M170 748l80 188h158l-136 -188h-102zM36 0l120 680h137l-120 -680h-137z" />
    <glyph glyph-name="Icircumflex" unicode="&#xce;" horiz-adv-x="281" 
d="M71 748l193 216h11l117 -216h-102l-43 72l-67 -72h-109zM36 0l120 680h137l-120 -680h-137z" />
    <glyph glyph-name="Idieresis" unicode="&#xcf;" horiz-adv-x="281" 
d="M355 756c-37 0 -73 33 -73 74s36 74 73 74c38 0 72 -33 72 -74s-34 -74 -72 -74zM145 756c-37 0 -72 33 -72 74s35 74 72 74c38 0 73 -33 73 -74s-35 -74 -73 -74zM36 0l120 680h137l-120 -680h-137z" />
    <glyph glyph-name="Igrave" unicode="&#xcc;" horiz-adv-x="281" 
d="M192 748l-91 188h152l39 -188h-100zM36 0l120 680h137l-120 -680h-137z" />
    <glyph glyph-name="Ntilde" unicode="&#xd1;" horiz-adv-x="683" 
d="M346 748l-87 9c12 94 59 140 114 140c28 0 47 -9 63 -20c21 -14 32 -25 45 -25c18 0 26 15 31 45l87 -9c-10 -94 -58 -140 -114 -140c-27 0 -47 9 -63 20c-21 14 -31 25 -45 25c-17 0 -26 -15 -31 -45zM565 -6l-276 331c-31 38 -63 98 -63 98s-4 -77 -13 -125l-53 -298
h-128l121 686h13l277 -332c31 -37 63 -98 63 -98s3 72 12 125l53 299h128l-121 -686h-13z" />
    <glyph glyph-name="Oacute" unicode="&#xd3;" horiz-adv-x="780" 
d="M393 748l80 188h158l-136 -188h-102zM398 -9c-187 0 -330 140 -330 337c0 221 166 360 361 360c187 0 331 -140 331 -337c0 -221 -167 -360 -362 -360zM403 113c131 0 216 95 216 241c0 129 -80 212 -194 212c-131 0 -216 -95 -216 -241c0 -129 80 -212 194 -212z" />
    <glyph glyph-name="Ocircumflex" unicode="&#xd4;" horiz-adv-x="780" 
d="M291 748l193 216h11l117 -216h-102l-43 72l-67 -72h-109zM398 -9c-187 0 -330 140 -330 337c0 221 166 360 361 360c187 0 331 -140 331 -337c0 -221 -167 -360 -362 -360zM403 113c131 0 216 95 216 241c0 129 -80 212 -194 212c-131 0 -216 -95 -216 -241
c0 -129 80 -212 194 -212z" />
    <glyph glyph-name="Odieresis" unicode="&#xd6;" horiz-adv-x="780" 
d="M567 756c-37 0 -73 33 -73 74s36 74 73 74c38 0 72 -33 72 -74s-34 -74 -72 -74zM357 756c-37 0 -72 33 -72 74s35 74 72 74c38 0 73 -33 73 -74s-35 -74 -73 -74zM398 -9c-187 0 -330 140 -330 337c0 221 166 360 361 360c187 0 331 -140 331 -337
c0 -221 -167 -360 -362 -360zM403 113c131 0 216 95 216 241c0 129 -80 212 -194 212c-131 0 -216 -95 -216 -241c0 -129 80 -212 194 -212z" />
    <glyph glyph-name="Ograve" unicode="&#xd2;" horiz-adv-x="780" 
d="M395 748l-91 188h152l39 -188h-100zM398 -9c-187 0 -330 140 -330 337c0 221 166 360 361 360c187 0 331 -140 331 -337c0 -221 -167 -360 -362 -360zM403 113c131 0 216 95 216 241c0 129 -80 212 -194 212c-131 0 -216 -95 -216 -241c0 -129 80 -212 194 -212z" />
    <glyph glyph-name="Otilde" unicode="&#xd5;" horiz-adv-x="780" 
d="M377 748l-87 9c12 94 59 140 114 140c28 0 47 -9 63 -20c21 -14 32 -25 45 -25c18 0 26 15 31 45l87 -9c-10 -94 -58 -140 -114 -140c-27 0 -47 9 -63 20c-21 14 -31 25 -45 25c-17 0 -26 -15 -31 -45zM398 -9c-187 0 -330 140 -330 337c0 221 166 360 361 360
c187 0 331 -140 331 -337c0 -221 -167 -360 -362 -360zM403 113c131 0 216 95 216 241c0 129 -80 212 -194 212c-131 0 -216 -95 -216 -241c0 -129 80 -212 194 -212z" />
    <glyph glyph-name="Scaron" unicode="&#x160;" horiz-adv-x="526" 
d="M313 728l-117 217h102l43 -73l67 73h109l-193 -217h-11zM251 -9c-128 0 -217 74 -250 138l108 73c27 -44 73 -91 142 -91c57 0 97 28 97 72c0 38 -24 56 -85 96l-32 21c-86 56 -128 111 -128 200c0 102 70 188 212 188c84 0 144 -33 185 -85l-98 -84
c-26 32 -51 51 -94 51c-48 0 -70 -30 -70 -64s19 -55 70 -87l33 -21c91 -58 147 -107 147 -205c0 -135 -103 -202 -237 -202z" />
    <glyph glyph-name="Uacute" unicode="&#xda;" horiz-adv-x="669" 
d="M367 748l80 188h158l-136 -188h-102zM323 -9c-163 0 -276 110 -246 279l72 410h138l-74 -420c-17 -96 25 -147 117 -147c85 0 127 44 143 133l77 434h138l-81 -456c-28 -156 -131 -233 -284 -233z" />
    <glyph glyph-name="Ucircumflex" unicode="&#xdb;" horiz-adv-x="669" 
d="M263 748l193 216h11l117 -216h-102l-43 72l-67 -72h-109zM323 -9c-163 0 -276 110 -246 279l72 410h138l-74 -420c-17 -96 25 -147 117 -147c85 0 127 44 143 133l77 434h138l-81 -456c-28 -156 -131 -233 -284 -233z" />
    <glyph glyph-name="Udieresis" unicode="&#xdc;" horiz-adv-x="669" 
d="M537 756c-37 0 -73 33 -73 74s36 74 73 74c38 0 72 -33 72 -74s-34 -74 -72 -74zM327 756c-37 0 -72 33 -72 74s35 74 72 74c38 0 73 -33 73 -74s-35 -74 -73 -74zM323 -9c-163 0 -276 110 -246 279l72 410h138l-74 -420c-17 -96 25 -147 117 -147c85 0 127 44 143 133
l77 434h138l-81 -456c-28 -156 -131 -233 -284 -233z" />
    <glyph glyph-name="Ugrave" unicode="&#xd9;" horiz-adv-x="669" 
d="M367 748l-91 188h152l39 -188h-100zM323 -9c-163 0 -276 110 -246 279l72 410h138l-74 -420c-17 -96 25 -147 117 -147c85 0 127 44 143 133l77 434h138l-81 -456c-28 -156 -131 -233 -284 -233z" />
    <glyph glyph-name="Yacute" unicode="&#xdd;" horiz-adv-x="664" 
d="M368 748l80 188h158l-136 -188h-102zM272 217l-170 463h145l78 -219c18 -52 32 -135 32 -135s37 85 72 135l152 219h149l-320 -457l-39 -223h-137z" />
    <glyph glyph-name="Ydieresis" unicode="&#x178;" horiz-adv-x="664" 
d="M527 756c-37 0 -73 33 -73 74s36 74 73 74c38 0 72 -33 72 -74s-34 -74 -72 -74zM317 756c-37 0 -72 33 -72 74s35 74 72 74c38 0 73 -33 73 -74s-35 -74 -73 -74zM272 217l-170 463h145l78 -219c18 -52 32 -135 32 -135s37 85 72 135l152 219h149l-320 -457l-39 -223
h-137z" />
    <glyph glyph-name="Zcaron" unicode="&#x17d;" horiz-adv-x="595" 
d="M370 728l-117 217h102l43 -73l67 73h109l-193 -217h-11zM2 0v12l389 549h-253l21 119h462v-12l-390 -549h291l-21 -119h-499z" />
    <glyph glyph-name="aacute" unicode="&#xe1;" horiz-adv-x="532" 
d="M241 500l80 188h158l-136 -188h-102zM200 -9c-92 0 -167 79 -167 204c0 154 94 240 202 240c58 0 108 -22 137 -77l9 68h132l-53 -302c-3 -18 3 -25 18 -25h30l-17 -99h-50c-96 0 -109 25 -116 59l-1 5c-33 -49 -65 -73 -124 -73zM253 105c56 0 94 48 94 116
c0 60 -29 99 -82 99c-58 0 -94 -47 -94 -119c0 -60 30 -96 82 -96z" />
    <glyph glyph-name="acircumflex" unicode="&#xe2;" horiz-adv-x="532" 
d="M149 500l193 216h11l117 -216h-102l-43 72l-67 -72h-109zM200 -9c-92 0 -167 79 -167 204c0 154 94 240 202 240c58 0 108 -22 137 -77l9 68h132l-53 -302c-3 -18 3 -25 18 -25h30l-17 -99h-50c-96 0 -109 25 -116 59l-1 5c-33 -49 -65 -73 -124 -73zM253 105
c56 0 94 48 94 116c0 60 -29 99 -82 99c-58 0 -94 -47 -94 -119c0 -60 30 -96 82 -96z" />
    <glyph glyph-name="adieresis" unicode="&#xe4;" horiz-adv-x="532" 
d="M436 508c-37 0 -73 33 -73 74s36 74 73 74c38 0 72 -33 72 -74s-34 -74 -72 -74zM226 508c-37 0 -72 33 -72 74s35 74 72 74c38 0 73 -33 73 -74s-35 -74 -73 -74zM200 -9c-92 0 -167 79 -167 204c0 154 94 240 202 240c58 0 108 -22 137 -77l9 68h132l-53 -302
c-3 -18 3 -25 18 -25h30l-17 -99h-50c-96 0 -109 25 -116 59l-1 5c-33 -49 -65 -73 -124 -73zM253 105c56 0 94 48 94 116c0 60 -29 99 -82 99c-58 0 -94 -47 -94 -119c0 -60 30 -96 82 -96z" />
    <glyph glyph-name="agrave" unicode="&#xe0;" horiz-adv-x="532" 
d="M248 500l-91 188h152l39 -188h-100zM200 -9c-92 0 -167 79 -167 204c0 154 94 240 202 240c58 0 108 -22 137 -77l9 68h132l-53 -302c-3 -18 3 -25 18 -25h30l-17 -99h-50c-96 0 -109 25 -116 59l-1 5c-33 -49 -65 -73 -124 -73zM253 105c56 0 94 48 94 116
c0 60 -29 99 -82 99c-58 0 -94 -47 -94 -119c0 -60 30 -96 82 -96z" />
    <glyph glyph-name="aring" unicode="&#xe5;" horiz-adv-x="532" 
d="M322 474c-71 0 -125 55 -125 119c0 65 54 119 125 119s125 -54 125 -119c0 -64 -54 -119 -125 -119zM200 -9c-92 0 -167 79 -167 204c0 154 94 240 202 240c58 0 108 -22 137 -77l9 68h132l-53 -302c-3 -18 3 -25 18 -25h30l-17 -99h-50c-96 0 -109 25 -116 59l-1 5
c-33 -49 -65 -73 -124 -73zM322 547c23 0 42 17 42 46s-19 46 -42 46s-42 -17 -42 -46s19 -46 42 -46zM253 105c56 0 94 48 94 116c0 60 -29 99 -82 99c-58 0 -94 -47 -94 -119c0 -60 30 -96 82 -96z" />
    <glyph glyph-name="atilde" unicode="&#xe3;" horiz-adv-x="532" 
d="M243 500l-87 9c12 94 59 140 114 140c28 0 47 -9 63 -20c21 -14 32 -25 45 -25c18 0 26 15 31 45l87 -9c-10 -94 -58 -140 -114 -140c-27 0 -47 9 -63 20c-21 14 -31 25 -45 25c-17 0 -26 -15 -31 -45zM200 -9c-92 0 -167 79 -167 204c0 154 94 240 202 240
c58 0 108 -22 137 -77l9 68h132l-53 -302c-3 -18 3 -25 18 -25h30l-17 -99h-50c-96 0 -109 25 -116 59l-1 5c-33 -49 -65 -73 -124 -73zM253 105c56 0 94 48 94 116c0 60 -29 99 -82 99c-58 0 -94 -47 -94 -119c0 -60 30 -96 82 -96z" />
    <glyph glyph-name="ccedilla" unicode="&#xe7;" horiz-adv-x="455" 
d="M180 2c-87 28 -145 102 -145 207c0 134 101 226 235 226c86 0 144 -36 179 -85l-97 -76c-18 29 -47 46 -83 46c-59 0 -97 -47 -97 -111c0 -63 28 -104 87 -104c40 0 63 17 81 32l76 -87c-35 -35 -85 -59 -157 -59h-10l-5 -32c37 -6 75 -38 75 -94
c0 -68 -52 -105 -109 -105c-63 0 -99 26 -117 62l65 36c8 -14 19 -28 44 -28c23 0 38 12 38 36c0 22 -13 37 -42 37h-35z" />
    <glyph glyph-name="eacute" unicode="&#xe9;" horiz-adv-x="515" 
d="M243 500l80 188h158l-136 -188h-102zM173 162c14 -41 49 -63 105 -63c48 0 78 18 101 36l80 -84c-46 -38 -100 -60 -182 -60c-155 0 -241 94 -241 219c0 136 101 225 229 225c151 0 217 -98 224 -239zM168 236l177 19c-3 46 -30 75 -79 75c-56 0 -91 -30 -98 -94z" />
    <glyph glyph-name="ecircumflex" unicode="&#xea;" horiz-adv-x="515" 
d="M131 500l193 216h11l117 -216h-102l-43 72l-67 -72h-109zM173 162c14 -41 49 -63 105 -63c48 0 78 18 101 36l80 -84c-46 -38 -100 -60 -182 -60c-155 0 -241 94 -241 219c0 136 101 225 229 225c151 0 217 -98 224 -239zM168 236l177 19c-3 46 -30 75 -79 75
c-56 0 -91 -30 -98 -94z" />
    <glyph glyph-name="edieresis" unicode="&#xeb;" horiz-adv-x="515" 
d="M421 508c-37 0 -73 33 -73 74s36 74 73 74c38 0 72 -33 72 -74s-34 -74 -72 -74zM211 508c-37 0 -72 33 -72 74s35 74 72 74c38 0 73 -33 73 -74s-35 -74 -73 -74zM173 162c14 -41 49 -63 105 -63c48 0 78 18 101 36l80 -84c-46 -38 -100 -60 -182 -60
c-155 0 -241 94 -241 219c0 136 101 225 229 225c151 0 217 -98 224 -239zM168 236l177 19c-3 46 -30 75 -79 75c-56 0 -91 -30 -98 -94z" />
    <glyph glyph-name="egrave" unicode="&#xe8;" horiz-adv-x="515" 
d="M234 500l-91 188h152l39 -188h-100zM173 162c14 -41 49 -63 105 -63c48 0 78 18 101 36l80 -84c-46 -38 -100 -60 -182 -60c-155 0 -241 94 -241 219c0 136 101 225 229 225c151 0 217 -98 224 -239zM168 236l177 19c-3 46 -30 75 -79 75c-56 0 -91 -30 -98 -94z" />
    <glyph glyph-name="iacute" unicode="&#xed;" horiz-adv-x="260" 
d="M114 500l80 188h158l-136 -188h-102zM156 0c-96 0 -131 22 -113 123l53 303h132l-53 -302c-3 -18 3 -25 18 -25h30l-17 -99h-50z" />
    <glyph glyph-name="icircumflex" unicode="&#xee;" horiz-adv-x="260" 
d="M16 500l193 216h11l117 -216h-102l-43 72l-67 -72h-109zM156 0c-96 0 -131 22 -113 123l53 303h132l-53 -302c-3 -18 3 -25 18 -25h30l-17 -99h-50z" />
    <glyph glyph-name="idieresis" unicode="&#xef;" horiz-adv-x="260" 
d="M299 508c-37 0 -73 33 -73 74s36 74 73 74c38 0 72 -33 72 -74s-34 -74 -72 -74zM89 508c-37 0 -72 33 -72 74s35 74 72 74c38 0 73 -33 73 -74s-35 -74 -73 -74zM156 0c-96 0 -131 22 -113 123l53 303h132l-53 -302c-3 -18 3 -25 18 -25h30l-17 -99h-50z" />
    <glyph glyph-name="igrave" unicode="&#xec;" horiz-adv-x="260" 
d="M136 500l-91 188h152l39 -188h-100zM156 0c-96 0 -131 22 -113 123l53 303h132l-53 -302c-3 -18 3 -25 18 -25h30l-17 -99h-50z" />
    <glyph glyph-name="ntilde" unicode="&#xf1;" horiz-adv-x="525" 
d="M224 500l-87 9c12 94 59 140 114 140c28 0 47 -9 63 -20c21 -14 32 -25 45 -25c18 0 26 15 31 45l87 -9c-10 -94 -58 -140 -114 -140c-27 0 -47 9 -63 20c-21 14 -31 25 -45 25c-17 0 -26 -15 -31 -45zM16 0l75 426h132l-16 -77c34 56 77 86 138 86
c93 0 149 -79 128 -199l-20 -112c-3 -18 3 -25 18 -25h30l-17 -99h-50c-96 0 -131 22 -113 123l19 109c10 57 -13 86 -60 86c-53 0 -80 -26 -91 -87l-41 -231h-132z" />
    <glyph glyph-name="oacute" unicode="&#xf3;" horiz-adv-x="530" 
d="M236 500l80 188h158l-136 -188h-102zM260 -9c-126 0 -225 91 -225 216c0 138 105 228 237 228c126 0 225 -89 225 -217c0 -138 -105 -227 -237 -227zM264 103c60 0 97 47 97 116c0 62 -36 102 -93 102c-60 0 -97 -47 -97 -116c0 -62 36 -102 93 -102z" />
    <glyph glyph-name="ocircumflex" unicode="&#xf4;" horiz-adv-x="530" 
d="M142 500l193 216h11l117 -216h-102l-43 72l-67 -72h-109zM260 -9c-126 0 -225 91 -225 216c0 138 105 228 237 228c126 0 225 -89 225 -217c0 -138 -105 -227 -237 -227zM264 103c60 0 97 47 97 116c0 62 -36 102 -93 102c-60 0 -97 -47 -97 -116c0 -62 36 -102 93 -102z
" />
    <glyph glyph-name="odieresis" unicode="&#xf6;" horiz-adv-x="530" 
d="M424 508c-37 0 -73 33 -73 74s36 74 73 74c38 0 72 -33 72 -74s-34 -74 -72 -74zM214 508c-37 0 -72 33 -72 74s35 74 72 74c38 0 73 -33 73 -74s-35 -74 -73 -74zM260 -9c-126 0 -225 91 -225 216c0 138 105 228 237 228c126 0 225 -89 225 -217
c0 -138 -105 -227 -237 -227zM264 103c60 0 97 47 97 116c0 62 -36 102 -93 102c-60 0 -97 -47 -97 -116c0 -62 36 -102 93 -102z" />
    <glyph glyph-name="ograve" unicode="&#xf2;" horiz-adv-x="530" 
d="M251 500l-91 188h152l39 -188h-100zM260 -9c-126 0 -225 91 -225 216c0 138 105 228 237 228c126 0 225 -89 225 -217c0 -138 -105 -227 -237 -227zM264 103c60 0 97 47 97 116c0 62 -36 102 -93 102c-60 0 -97 -47 -97 -116c0 -62 36 -102 93 -102z" />
    <glyph glyph-name="otilde" unicode="&#xf5;" horiz-adv-x="530" 
d="M218 500l-87 9c12 94 59 140 114 140c28 0 47 -9 63 -20c21 -14 32 -25 45 -25c18 0 26 15 31 45l87 -9c-10 -94 -58 -140 -114 -140c-27 0 -47 9 -63 20c-21 14 -31 25 -45 25c-17 0 -26 -15 -31 -45zM260 -9c-126 0 -225 91 -225 216c0 138 105 228 237 228
c126 0 225 -89 225 -217c0 -138 -105 -227 -237 -227zM264 103c60 0 97 47 97 116c0 62 -36 102 -93 102c-60 0 -97 -47 -97 -116c0 -62 36 -102 93 -102z" />
    <glyph glyph-name="scaron" unicode="&#x161;" horiz-adv-x="413" 
d="M226 480l-117 217h102l43 -73l67 73h109l-193 -217h-11zM186 -9c-87 0 -149 36 -182 88l91 64c24 -34 51 -49 94 -49c40 0 51 12 51 26c0 18 -17 20 -80 49c-58 27 -97 62 -97 129c0 89 68 137 160 137c67 0 117 -26 149 -63l-86 -72c-15 19 -31 34 -63 34
c-23 0 -39 -10 -39 -26s17 -24 61 -43c72 -31 120 -59 120 -140c0 -79 -60 -134 -179 -134z" />
    <glyph glyph-name="uacute" unicode="&#xfa;" horiz-adv-x="528" 
d="M251 500l80 188h158l-136 -188h-102zM176 -9c-93 0 -149 79 -128 199l41 236h133l-41 -232c-10 -57 13 -86 60 -86c53 0 80 26 91 87l41 231h132l-53 -302c-3 -18 3 -25 18 -25h30l-17 -99h-50c-96 0 -111 26 -116 61l-1 7c-38 -54 -79 -77 -140 -77z" />
    <glyph glyph-name="ucircumflex" unicode="&#xfb;" horiz-adv-x="528" 
d="M147 500l193 216h11l117 -216h-102l-43 72l-67 -72h-109zM176 -9c-93 0 -149 79 -128 199l41 236h133l-41 -232c-10 -57 13 -86 60 -86c53 0 80 26 91 87l41 231h132l-53 -302c-3 -18 3 -25 18 -25h30l-17 -99h-50c-96 0 -111 26 -116 61l-1 7c-38 -54 -79 -77 -140 -77z
" />
    <glyph glyph-name="udieresis" unicode="&#xfc;" horiz-adv-x="528" 
d="M421 508c-37 0 -73 33 -73 74s36 74 73 74c38 0 72 -33 72 -74s-34 -74 -72 -74zM211 508c-37 0 -72 33 -72 74s35 74 72 74c38 0 73 -33 73 -74s-35 -74 -73 -74zM176 -9c-93 0 -149 79 -128 199l41 236h133l-41 -232c-10 -57 13 -86 60 -86c53 0 80 26 91 87l41 231
h132l-53 -302c-3 -18 3 -25 18 -25h30l-17 -99h-50c-96 0 -111 26 -116 61l-1 7c-38 -54 -79 -77 -140 -77z" />
    <glyph glyph-name="ugrave" unicode="&#xf9;" horiz-adv-x="528" 
d="M261 500l-91 188h152l39 -188h-100zM176 -9c-93 0 -149 79 -128 199l41 236h133l-41 -232c-10 -57 13 -86 60 -86c53 0 80 26 91 87l41 231h132l-53 -302c-3 -18 3 -25 18 -25h30l-17 -99h-50c-96 0 -111 26 -116 61l-1 7c-38 -54 -79 -77 -140 -77z" />
    <glyph glyph-name="yacute" unicode="&#xfd;" horiz-adv-x="518" 
d="M254 500l80 188h158l-136 -188h-102zM182 -222c-87 0 -152 31 -193 82l87 84c23 -30 58 -55 110 -55c59 0 97 32 110 102l12 66c-36 -46 -75 -66 -132 -66c-93 0 -149 79 -128 199l41 236h133l-41 -232c-10 -57 13 -86 60 -86c53 0 80 26 91 87l41 231h132l-79 -450
c-25 -141 -118 -198 -244 -198z" />
    <glyph glyph-name="ydieresis" unicode="&#xff;" horiz-adv-x="518" 
d="M417 508c-37 0 -73 33 -73 74s36 74 73 74c38 0 72 -33 72 -74s-34 -74 -72 -74zM207 508c-37 0 -72 33 -72 74s35 74 72 74c38 0 73 -33 73 -74s-35 -74 -73 -74zM182 -222c-87 0 -152 31 -193 82l87 84c23 -30 58 -55 110 -55c59 0 97 32 110 102l12 66
c-36 -46 -75 -66 -132 -66c-93 0 -149 79 -128 199l41 236h133l-41 -232c-10 -57 13 -86 60 -86c53 0 80 26 91 87l41 231h132l-79 -450c-25 -141 -118 -198 -244 -198z" />
    <glyph glyph-name="zcaron" unicode="&#x17e;" horiz-adv-x="437" 
d="M257 480l-117 217h102l43 -73l67 73h109l-193 -217h-11zM-1 0v11l224 307h-160l19 108h362v-11l-224 -307h164l-19 -108h-366z" />
    <glyph glyph-name=".null" horiz-adv-x="0" 
 />
    <glyph glyph-name="CR" unicode="&#xd;" horiz-adv-x="206" 
 />
    <glyph glyph-name="lessequal" unicode="&#x2264;" 
d="M131 173c-45 0 -83 35 -83 85c0 49 38 84 83 84s83 -35 83 -84c0 -50 -38 -85 -83 -85z" />
    <glyph glyph-name="greaterequal" unicode="&#x2265;" 
d="M131 173c-45 0 -83 35 -83 85c0 49 38 84 83 84s83 -35 83 -84c0 -50 -38 -85 -83 -85z" />
    <glyph glyph-name="partialdiff" unicode="&#x2202;" 
d="M131 173c-45 0 -83 35 -83 85c0 49 38 84 83 84s83 -35 83 -84c0 -50 -38 -85 -83 -85z" />
    <glyph glyph-name="summation" unicode="&#x2211;" horiz-adv-x="780" 
d="M470 9c26 -24 53 -42 92 -42c37 0 64 22 80 43l89 -77c-38 -53 -89 -86 -170 -86c-102 0 -165 73 -226 129c-35 32 -66 60 -105 60c-49 0 -80 -32 -105 -68l-93 78c22 36 55 64 99 81c-40 53 -63 121 -63 201c0 221 166 360 361 360c187 0 331 -140 331 -337
c0 -195 -120 -316 -290 -342zM403 113c131 0 216 95 216 241c0 129 -80 212 -194 212c-131 0 -216 -95 -216 -241c0 -129 80 -212 194 -212z" />
    <glyph glyph-name="product" unicode="&#x220f;" 
d="M131 173c-45 0 -83 35 -83 85c0 49 38 84 83 84s83 -35 83 -84c0 -50 -38 -85 -83 -85z" />
    <glyph glyph-name="pi" unicode="&#x3c0;" 
d="M131 173c-45 0 -83 35 -83 85c0 49 38 84 83 84s83 -35 83 -84c0 -50 -38 -85 -83 -85z" />
    <glyph glyph-name="integral" unicode="&#x222b;" 
d="M131 173c-45 0 -83 35 -83 85c0 49 38 84 83 84s83 -35 83 -84c0 -50 -38 -85 -83 -85z" />
    <glyph glyph-name="Omega" unicode="&#x3a9;" 
d="M131 173c-45 0 -83 35 -83 85c0 49 38 84 83 84s83 -35 83 -84c0 -50 -38 -85 -83 -85z" />
    <glyph glyph-name="Omega" unicode="&#x2126;" 
d="M131 173c-45 0 -83 35 -83 85c0 49 38 84 83 84s83 -35 83 -84c0 -50 -38 -85 -83 -85z" />
    <glyph glyph-name="radical" unicode="&#x221a;" 
d="M131 173c-45 0 -83 35 -83 85c0 49 38 84 83 84s83 -35 83 -84c0 -50 -38 -85 -83 -85z" />
    <glyph glyph-name="approxequal" unicode="&#x2248;" 
d="M131 173c-45 0 -83 35 -83 85c0 49 38 84 83 84s83 -35 83 -84c0 -50 -38 -85 -83 -85z" />
    <glyph glyph-name="Delta" unicode="&#x394;" 
d="M131 173c-45 0 -83 35 -83 85c0 49 38 84 83 84s83 -35 83 -84c0 -50 -38 -85 -83 -85z" />
    <glyph glyph-name="Delta" unicode="&#x2206;" 
d="M131 173c-45 0 -83 35 -83 85c0 49 38 84 83 84s83 -35 83 -84c0 -50 -38 -85 -83 -85z" />
    <glyph glyph-name="nbspace" unicode="&#xa0;" horiz-adv-x="178" 
 />
    <glyph glyph-name="lozenge" unicode="&#x25ca;" 
d="M131 173c-45 0 -83 35 -83 85c0 49 38 84 83 84s83 -35 83 -84c0 -50 -38 -85 -83 -85z" />
    <glyph glyph-name="apple" 
d="M131 173c-45 0 -83 35 -83 85c0 49 38 84 83 84s83 -35 83 -84c0 -50 -38 -85 -83 -85z" />
    <glyph glyph-name="Euro" unicode="&#x20ac;" horiz-adv-x="590" 
d="M90 283h-58l15 82h64c43 103 144 166 249 166c94 0 158 -28 212 -100l-99 -68c-25 36 -53 53 -111 53c-44 0 -83 -17 -108 -51h135l-15 -82h-150c0 -9 -1 -19 -1 -29v-17h144l-14 -82h-105c21 -33 56 -51 103 -51c48 0 78 17 106 48l89 -73c-49 -62 -111 -88 -197 -88
c-114 0 -206 65 -243 164h-95l14 82h64v16c0 10 0 20 1 30z" />
    <glyph glyph-name="infinity" horiz-adv-x="850" 
d="M779 504c-42 0 -78 31 -78 78c0 46 35 77 77 77c43 0 79 -31 79 -77c0 -47 -35 -78 -78 -78zM525 317l-69 -389c-18 -104 -58 -115 -147 -115h-61l19 99h32c15 0 23 4 27 25l67 380h-141l-73 -414c-18 -104 -58 -115 -147 -115h-69l19 99h40c15 0 23 4 27 25l71 405h-70
l19 109h70l24 132c18 101 66 157 164 157c45 0 73 -11 98 -33l-57 -99c-11 9 -20 14 -35 14c-20 0 -33 -10 -39 -42l-23 -129h141l27 152c18 101 65 157 166 157c51 0 84 -15 117 -46l-77 -87c-11 10 -19 15 -34 15c-22 0 -35 -10 -41 -42l-27 -149h274l-53 -302
c-3 -18 3 -25 18 -25h30l-17 -99h-50c-96 0 -131 22 -113 123l34 194h-141z" />
    <glyph glyph-name="notequal" horiz-adv-x="645" 
d="M393 317h-141l-73 -414c-18 -104 -58 -115 -147 -115h-69l19 99h40c15 0 23 4 27 25l71 405h-70l19 109h70l24 132c18 101 66 157 164 157c45 0 73 -11 98 -33l-57 -99c-11 9 -20 14 -35 14c-20 0 -33 -10 -39 -42l-23 -129h141l27 152c18 101 68 157 169 157
c57 0 96 -20 125 -54l-77 -87c-10 14 -21 23 -42 23c-22 0 -38 -10 -44 -42l-26 -149h110l-19 -109h-110l-69 -389c-18 -104 -58 -115 -147 -115h-61l19 99h32c15 0 23 4 27 25z" />
    </font>
</defs>
</svg>
