<?xml version="1.0" standalone="no"?>
<!DOCTYPE svg PUBLIC "-//W3C//DTD SVG 1.1//EN" "http://www.w3.org/Graphics/SVG/1.1/DTD/svg11.dtd" >
<svg xmlns="http://www.w3.org/2000/svg" xmlns:xlink="http://www.w3.org/1999/xlink" version="1.1">
<metadata>
Created by FontForge 20190801 at Mon Dec 16 13:10:39 2002
 By www-data
(C)2002 House Industries/Brand Design Co. Inc.
</metadata>
<defs>
<font id="NeutraText-Book" horiz-adv-x="200" >
  <font-face 
    font-family="Neutra Text"
    font-weight="500"
    font-stretch="normal"
    units-per-em="1000"
    panose-1="2 0 0 0 0 0 0 0 0 0"
    ascent="800"
    descent="-200"
    x-height="414"
    cap-height="680"
    bbox="-57 -232 1083 946"
    underline-thickness="20"
    underline-position="-143"
    stemh="59"
    stemv="70"
    unicode-range="U+000D-FB02"
  />
<missing-glyph horiz-adv-x="500" 
 />
    <glyph glyph-name="fi" unicode="fi" horiz-adv-x="503" 
d="M392 534c-26 0 -50 20 -50 49s24 50 50 50s50 -21 50 -50s-24 -49 -50 -49zM101 0v355h-67v59h67v188c0 93 47 133 116 133c50 0 81 -21 100 -45l-44 -42c-14 15 -27 24 -51 24c-30 0 -51 -16 -51 -70v-188h256v-414h-70v355h-186v-355h-70z" />
    <glyph glyph-name="fl" unicode="fl" horiz-adv-x="507" 
d="M101 0v355h-67v59h67v152c0 112 78 169 164 169c85 0 162 -51 162 -165v-570h-70v565c0 75 -37 107 -92 107s-94 -32 -94 -107v-151h106v-59h-106v-355h-70z" />
    <glyph glyph-name="ff" unicode="ff" horiz-adv-x="572" 
d="M101 0v355h-67v59h67v168c0 93 47 133 114 133c49 0 81 -17 102 -44l-45 -44c-12 15 -26 25 -50 25c-30 0 -51 -16 -51 -70v-168h186v188c0 93 47 133 115 133c51 0 84 -20 105 -51l-46 -41c-13 17 -25 29 -53 29c-30 0 -51 -17 -51 -70v-188h111v-59h-111v-355h-70v355
h-186v-355h-70z" />
    <glyph glyph-name="ffi" unicode="ffi" horiz-adv-x="759" 
d="M648 534c-26 0 -50 20 -50 49s24 50 50 50s50 -21 50 -50s-24 -49 -50 -49zM101 0v355h-67v59h67v168c0 93 47 133 114 133c49 0 81 -17 102 -44l-45 -44c-12 15 -26 25 -50 25c-30 0 -51 -16 -51 -70v-168h186v188c0 93 47 133 116 133c50 0 81 -21 100 -45l-44 -42
c-14 15 -27 24 -51 24c-30 0 -51 -16 -51 -70v-188h256v-414h-70v355h-186v-355h-70v355h-186v-355h-70z" />
    <glyph glyph-name="ffl" unicode="ffl" horiz-adv-x="763" 
d="M101 0v355h-67v59h67v168c0 93 47 133 114 133c49 0 81 -17 102 -44l-45 -44c-12 15 -26 25 -50 25c-30 0 -51 -16 -51 -70v-168h186v152c0 112 78 169 164 169c85 0 162 -51 162 -165v-570h-70v565c0 75 -37 107 -92 107s-94 -32 -94 -107v-151h106v-59h-106v-355h-70
v355h-186v-355h-70z" />
    <glyph glyph-name=".notdef" horiz-adv-x="500" 
 />
    <glyph glyph-name=".notdef" horiz-adv-x="500" 
 />
    <glyph glyph-name="space" unicode=" " horiz-adv-x="237" 
 />
    <glyph glyph-name="exclam" unicode="!" horiz-adv-x="244" 
d="M95 190l-12 490h78l-12 -490h-54zM122 -7c-28 0 -53 23 -53 53c0 31 25 54 53 54s53 -23 53 -54c0 -30 -25 -53 -53 -53z" />
    <glyph glyph-name="quotedbl" unicode="&#x22;" horiz-adv-x="283" 
d="M178 470l-9 210h74l-8 -210h-57zM48 470l-8 210h74l-8 -210h-58z" />
    <glyph glyph-name="numbersign" unicode="#" horiz-adv-x="461" 
d="M68 176l28 108h-67v56h80l27 108h-72v56h86l27 109h58l-27 -109h99l28 109h58l-27 -109h66v-56h-80l-27 -108h71v-56h-86l-26 -108h-59l27 108h-99l-26 -108h-59zM167 340h100l27 108h-99z" />
    <glyph glyph-name="dollar" unicode="$" horiz-adv-x="436" 
d="M191 -6c-89 9 -149 60 -173 110l54 29c22 -40 60 -74 119 -83v187c-97 27 -146 69 -146 144c0 70 57 124 146 130v106h51v-107c67 -10 113 -49 135 -87l-50 -32c-16 28 -42 54 -85 63v-166l6 -2c105 -31 156 -75 156 -152c0 -82 -58 -135 -162 -141v-112h-51v113z
M191 456c-50 -5 -80 -29 -80 -72c0 -42 22 -62 80 -80v152zM242 49c64 5 95 36 95 80c0 48 -24 71 -95 92v-172z" />
    <glyph glyph-name="percent" unicode="%" horiz-adv-x="766" 
d="M178 218c-80 0 -150 61 -150 147c0 85 70 147 150 147c79 0 149 -62 149 -147c0 -86 -70 -147 -149 -147zM191 0l315 504h70l-315 -504h-70zM589 -8c-80 0 -149 61 -149 146s69 147 149 147s149 -62 149 -147s-69 -146 -149 -146zM178 273c48 0 88 37 88 92
c0 56 -40 92 -88 92s-89 -36 -89 -92c0 -55 41 -92 89 -92zM589 46c48 0 88 37 88 92s-40 92 -88 92s-88 -37 -88 -92s40 -92 88 -92z" />
    <glyph glyph-name="ampersand" unicode="&#x26;" horiz-adv-x="654" 
d="M316 385l150 -182c19 46 29 101 29 165h69c0 -88 -19 -162 -51 -222l120 -146h-87l-73 88c-55 -62 -130 -96 -214 -96c-132 0 -216 73 -216 185c0 113 76 166 175 220l-12 15c-37 46 -55 91 -55 136c0 79 57 140 146 140c87 0 144 -60 144 -139c0 -69 -49 -120 -125 -164
zM279 430c58 34 96 69 96 119c0 48 -32 79 -77 79c-47 0 -78 -30 -78 -79c0 -36 15 -66 40 -96zM430 140l-176 213c-81 -44 -136 -88 -136 -172c0 -78 52 -125 141 -125c69 0 129 29 171 84z" />
    <glyph glyph-name="quoteright" unicode="&#x2019;" horiz-adv-x="199" 
d="M46 482l34 104c-18 6 -33 25 -33 48c0 30 25 53 52 53c28 0 53 -23 53 -52c0 -14 -6 -26 -13 -41l-56 -112h-37z" />
    <glyph glyph-name="parenleft" unicode="(" horiz-adv-x="288" 
d="M216 -136c-85 87 -172 223 -172 427c0 203 87 340 172 427l44 -36c-78 -91 -143 -211 -143 -391s65 -300 143 -391z" />
    <glyph glyph-name="parenright" unicode=")" horiz-adv-x="288" 
d="M71 -136l-43 36c78 91 142 211 142 391s-64 300 -142 391l43 36c85 -87 173 -223 173 -427c0 -203 -88 -340 -173 -427z" />
    <glyph glyph-name="asterisk" unicode="*" horiz-adv-x="394" 
d="M165 375l15 125l-98 -73l-31 54l117 47l-117 47l31 54l98 -72l-15 123h63l-15 -123l99 72l31 -54l-118 -47l117 -47l-30 -54l-99 73l15 -125h-63z" />
    <glyph glyph-name="plus" unicode="+" horiz-adv-x="373" 
d="M154 96v125h-115v62h115v125h64v-125h116v-62h-116v-125h-64z" />
    <glyph glyph-name="comma" unicode="," horiz-adv-x="202" 
d="M44 -112l39 111c-21 7 -36 25 -36 49c0 30 26 54 54 54c29 0 54 -24 54 -54c0 -14 -6 -29 -12 -40l-60 -120h-39z" />
    <glyph glyph-name="hyphen" unicode="-" horiz-adv-x="286" 
d="M46 200v63h193v-63h-193z" />
    <glyph glyph-name="hyphen" unicode="&#xad;" horiz-adv-x="286" 
d="M46 200v63h193v-63h-193z" />
    <glyph glyph-name="period" unicode="." horiz-adv-x="202" 
d="M101 -7c-28 0 -54 24 -54 55s26 54 54 54c29 0 54 -23 54 -54s-25 -55 -54 -55z" />
    <glyph glyph-name="slash" unicode="/" horiz-adv-x="428" 
d="M15 -128l300 850h70l-300 -850h-70z" />
    <glyph glyph-name="zero" unicode="0" horiz-adv-x="611" 
d="M305 -8c-141 0 -264 111 -264 260c0 152 123 260 264 260c142 0 265 -108 265 -260c0 -149 -123 -260 -265 -260zM305 55c107 0 192 83 192 197c0 117 -85 197 -192 197s-190 -80 -190 -197c0 -114 83 -197 190 -197z" />
    <glyph glyph-name="one" unicode="1" horiz-adv-x="284" 
d="M135 0v444h-111v60h182v-504h-71z" />
    <glyph glyph-name="two" unicode="2" horiz-adv-x="471" 
d="M29 0v9l203 185c67 61 106 105 106 161c0 62 -41 93 -98 93c-61 0 -103 -36 -125 -102l-64 18c24 92 96 148 188 148c106 0 171 -62 171 -154c0 -69 -50 -130 -122 -196l-76 -69c-18 -17 -52 -35 -52 -35s37 3 56 3h207v-61h-394z" />
    <glyph glyph-name="three" unicode="3" horiz-adv-x="494" 
d="M238 -103c-103 0 -180 51 -216 130l62 29c29 -62 81 -96 154 -96c77 0 142 51 142 144c0 90 -57 139 -148 139c-36 0 -61 -8 -81 -18l-7 10l149 180c14 17 31 33 31 33s-26 -4 -48 -4h-202v60h364v-7l-144 -173c-13 -15 -30 -27 -30 -27c105 -2 190 -77 190 -194
c0 -122 -91 -206 -216 -206z" />
    <glyph glyph-name="four" unicode="4" horiz-adv-x="522" 
d="M413 80h75v-59h-75v-115h-70v115h-322v34l382 459h10v-434zM343 80v227c0 21 3 53 3 53s-16 -24 -30 -42l-166 -205c-15 -18 -36 -36 -36 -36s26 3 48 3h181z" />
    <glyph glyph-name="five" unicode="5" horiz-adv-x="485" 
d="M231 -103c-100 0 -169 48 -200 109l59 32c26 -46 69 -78 141 -78c85 0 141 58 141 142c0 85 -49 140 -144 140c-69 0 -109 -27 -140 -53l-9 3v312h328v-60h-267v-167c22 14 54 26 101 26c122 0 205 -84 205 -201c0 -118 -86 -205 -215 -205z" />
    <glyph glyph-name="six" unicode="6" horiz-adv-x="508" 
d="M255 -8c-120 0 -213 82 -213 201c0 59 27 110 65 166l170 251h79l-137 -203c-16 -21 -48 -52 -48 -52c26 21 60 36 100 36c111 0 195 -81 195 -197c0 -117 -90 -202 -211 -202zM254 54c83 0 141 60 141 140c0 83 -53 140 -141 140c-86 0 -141 -64 -141 -140
c0 -80 54 -140 141 -140z" />
    <glyph glyph-name="seven" unicode="7" horiz-adv-x="451" 
d="M76 -94l252 538h-295v60h390v-9l-275 -589h-72z" />
    <glyph glyph-name="eight" unicode="8" horiz-adv-x="521" 
d="M260 -8c-131 0 -220 80 -220 187c0 85 56 143 135 166c-51 20 -87 62 -87 123c0 83 72 150 172 150c102 0 173 -67 173 -150c0 -61 -37 -103 -87 -123c79 -23 135 -81 135 -166c0 -107 -89 -187 -221 -187zM260 372c62 0 103 37 103 93c0 55 -43 94 -103 94
c-61 0 -103 -39 -103 -94c0 -56 41 -93 103 -93zM260 55c89 0 147 52 147 128c0 77 -59 131 -147 131c-89 0 -147 -54 -147 -131s58 -128 147 -128z" />
    <glyph glyph-name="nine" unicode="9" horiz-adv-x="514" 
d="M171 -94l128 191c16 24 46 49 46 49c-27 -23 -66 -37 -102 -37c-115 0 -201 81 -201 199c0 116 93 204 215 204c121 0 215 -82 215 -203c0 -61 -27 -110 -66 -169l-156 -234h-79zM256 165c88 0 144 66 144 143c0 80 -57 141 -143 141c-85 0 -144 -59 -144 -141
c0 -84 56 -143 143 -143z" />
    <glyph glyph-name="colon" unicode=":" horiz-adv-x="212" 
d="M106 217c-28 0 -54 24 -54 55s26 54 54 54c29 0 54 -23 54 -54s-25 -55 -54 -55zM106 -7c-28 0 -54 24 -54 55s26 54 54 54c29 0 54 -23 54 -54s-25 -55 -54 -55z" />
    <glyph glyph-name="semicolon" unicode=";" horiz-adv-x="212" 
d="M106 217c-28 0 -54 24 -54 55s26 54 54 54c29 0 54 -23 54 -54s-25 -55 -54 -55zM49 -112l39 111c-21 7 -36 25 -36 49c0 30 26 54 54 54c29 0 54 -24 54 -54c0 -14 -6 -29 -12 -40l-60 -120h-39z" />
    <glyph glyph-name="semicolon" unicode="&#x37e;" horiz-adv-x="212" 
d="M106 217c-28 0 -54 24 -54 55s26 54 54 54c29 0 54 -23 54 -54s-25 -55 -54 -55zM49 -112l39 111c-21 7 -36 25 -36 49c0 30 26 54 54 54c29 0 54 -24 54 -54c0 -14 -6 -29 -12 -40l-60 -120h-39z" />
    <glyph glyph-name="less" unicode="&#x3c;" horiz-adv-x="356" 
d="M307 94l-271 145v10l271 143v-64l-168 -84l168 -85v-65z" />
    <glyph glyph-name="equal" unicode="=" horiz-adv-x="371" 
d="M42 282v61h287v-61h-287zM42 152v62h287v-62h-287z" />
    <glyph glyph-name="greater" unicode="&#x3e;" horiz-adv-x="356" 
d="M49 94v64l168 84l-168 85v65l271 -145v-10z" />
    <glyph glyph-name="question" unicode="?" horiz-adv-x="469" 
d="M174 187v176h33c89 0 140 60 140 134c0 79 -51 128 -125 128c-67 0 -107 -28 -137 -88l-58 30c33 79 104 121 195 121c118 0 197 -77 197 -191c0 -106 -73 -181 -179 -189v-121h-66zM206 -7c-28 0 -53 23 -53 53c0 31 25 54 53 54s53 -23 53 -54c0 -30 -25 -53 -53 -53z
" />
    <glyph glyph-name="at" unicode="@" horiz-adv-x="886" 
d="M448 -206c-223 0 -399 157 -399 395c0 230 182 397 398 397c226 0 390 -159 390 -369c0 -154 -66 -223 -155 -223c-63 0 -105 31 -116 94c-29 -65 -79 -96 -144 -96c-99 0 -175 80 -175 191s76 194 174 194c65 0 109 -36 133 -86l-2 76h69v-231c0 -57 16 -88 63 -88
c52 0 91 49 91 168c0 181 -126 314 -328 314c-196 0 -332 -149 -332 -341c0 -194 130 -340 333 -340c59 0 116 14 164 40l26 -50c-56 -31 -118 -45 -190 -45zM436 50c67 0 118 59 118 133s-51 135 -118 135c-70 0 -118 -60 -118 -135s48 -133 118 -133z" />
    <glyph glyph-name="A" unicode="A" horiz-adv-x="656" 
d="M37 0l282 687h12l288 -687h-76l-46 114h-344l-45 -114h-71zM178 176h293l-120 302c-13 32 -26 81 -26 81s-14 -49 -27 -81z" />
    <glyph glyph-name="B" unicode="B" horiz-adv-x="609" 
d="M93 0v680h231c127 0 187 -75 187 -167c0 -67 -30 -116 -88 -135c88 -21 140 -88 140 -178c0 -113 -70 -200 -215 -200h-255zM165 402h164c79 0 110 45 110 107s-33 107 -120 107h-154v-214zM165 64h178c104 0 147 59 147 138c0 80 -47 138 -151 138h-174v-276z" />
    <glyph glyph-name="C" unicode="C" horiz-adv-x="726" 
d="M403 -8c-193 0 -349 143 -349 348s156 348 349 348c120 0 212 -45 270 -132l-55 -40c-44 65 -117 107 -215 107c-159 0 -274 -121 -274 -283s115 -283 274 -283c99 0 175 43 224 114l56 -39c-60 -88 -158 -140 -280 -140z" />
    <glyph glyph-name="D" unicode="D" horiz-adv-x="680" 
d="M93 0v680h165c227 0 368 -134 368 -340s-140 -340 -368 -340h-165zM165 65h88c201 0 297 113 297 275s-96 275 -297 275h-88v-550z" />
    <glyph glyph-name="E" unicode="E" horiz-adv-x="580" 
d="M93 0v680h414v-64h-342v-319h305v-63h-305v-170h356v-64h-428z" />
    <glyph glyph-name="F" unicode="F" horiz-adv-x="556" 
d="M93 0v680h409v-64h-337v-319h306v-66h-306v-231h-72z" />
    <glyph glyph-name="G" unicode="G" horiz-adv-x="743" 
d="M410 -8c-203 0 -356 143 -356 348s152 348 350 348c98 0 181 -28 237 -88l-49 -49c-44 46 -104 72 -188 72c-160 0 -275 -121 -275 -283s116 -283 281 -283c93 0 159 28 201 62v140h-202v64h270v-237c-50 -49 -141 -94 -269 -94z" />
    <glyph glyph-name="H" unicode="H" horiz-adv-x="694" 
d="M93 0v680h72v-383h364v383h72v-680h-72v231h-364v-231h-72z" />
    <glyph glyph-name="I" unicode="I" horiz-adv-x="265" 
d="M96 0v680h73v-680h-73z" />
    <glyph glyph-name="J" unicode="J" horiz-adv-x="483" 
d="M209 -8c-91 0 -145 45 -176 102l59 37c26 -45 61 -74 114 -74c67 0 112 37 112 124v499h73v-501c0 -125 -77 -187 -182 -187z" />
    <glyph glyph-name="K" unicode="K" horiz-adv-x="607" 
d="M159 265c15 29 36 67 49 84l257 331h81l-252 -328l279 -352h-89l-237 299l-82 -99v-200h-72v680h72v-322c0 -32 -4 -71 -6 -93z" />
    <glyph glyph-name="L" unicode="L" horiz-adv-x="527" 
d="M93 0v680h72v-616h321v-64h-393z" />
    <glyph glyph-name="M" unicode="M" horiz-adv-x="837" 
d="M93 0v688h10l316 -395l314 395h11v-688h-70v449c0 31 3 78 3 78s-26 -44 -48 -71l-206 -260h-12l-203 260c-22 27 -49 71 -49 71s4 -47 4 -78v-449h-70z" />
    <glyph glyph-name="N" unicode="N" horiz-adv-x="713" 
d="M608 -7l-406 480c-19 23 -47 63 -47 63s6 -48 6 -77v-459h-68v687h12l406 -480c19 -23 47 -63 47 -63s-5 48 -5 77v459h67v-687h-12z" />
    <glyph glyph-name="O" unicode="O" horiz-adv-x="807" 
d="M403 -8c-193 0 -349 143 -349 348s156 348 349 348c194 0 350 -143 350 -348s-156 -348 -350 -348zM403 57c159 0 275 121 275 283s-116 283 -275 283c-158 0 -274 -121 -274 -283s116 -283 274 -283z" />
    <glyph glyph-name="P" unicode="P" horiz-adv-x="584" 
d="M93 0v680h154c186 0 281 -103 281 -256c0 -150 -95 -255 -281 -255h-82v-169h-72zM165 232h78c153 0 210 80 210 192s-57 192 -210 192h-78v-384z" />
    <glyph glyph-name="Q" unicode="Q" horiz-adv-x="807" 
d="M651 89l103 -110l-50 -42l-104 112c-56 -36 -124 -57 -197 -57c-193 0 -349 143 -349 348s156 348 349 348c194 0 350 -143 350 -348c0 -102 -39 -189 -102 -251zM554 99l-103 112l49 42l104 -113c47 50 74 120 74 200c0 162 -116 283 -275 283
c-158 0 -274 -121 -274 -283s116 -283 274 -283c58 0 109 15 151 42z" />
    <glyph glyph-name="R" unicode="R" horiz-adv-x="596" 
d="M386 209l148 -209h-85l-131 186c-23 -4 -48 -6 -72 -6h-81v-180h-72v680h153c186 0 282 -104 282 -251c0 -102 -48 -182 -142 -220zM165 243h77c154 0 211 79 211 186s-58 187 -211 187h-77v-373z" />
    <glyph glyph-name="S" unicode="S" horiz-adv-x="531" 
d="M266 -8c-130 0 -201 66 -237 138l60 32c32 -57 79 -106 175 -106c79 0 141 44 141 116c0 69 -43 104 -128 142l-54 25c-97 44 -150 91 -150 186c0 98 77 163 179 163c91 0 148 -42 184 -102l-58 -36c-26 42 -62 74 -126 74c-67 0 -108 -39 -108 -97
c0 -60 32 -87 108 -122l54 -25c113 -50 171 -106 171 -208c0 -112 -89 -180 -211 -180z" />
    <glyph glyph-name="T" unicode="T" horiz-adv-x="556" 
d="M242 0v616h-209v64h490v-64h-209v-616h-72z" />
    <glyph glyph-name="U" unicode="U" horiz-adv-x="662" 
d="M331 -8c-139 0 -244 81 -244 240v448h72v-443c0 -121 66 -181 172 -181c105 0 172 60 172 181v443h72v-448c0 -159 -106 -240 -244 -240z" />
    <glyph glyph-name="V" unicode="V" horiz-adv-x="656" 
d="M324 -7l-287 687h78l187 -461c14 -34 29 -92 29 -92s15 58 29 92l186 461h73l-283 -687h-12z" />
    <glyph glyph-name="W" unicode="W" horiz-adv-x="953" 
d="M260 -7l-225 687h77l143 -453c9 -30 19 -74 19 -74s11 45 22 74l177 460h12l177 -460c11 -29 22 -74 22 -74s10 45 19 74l142 453h73l-224 -687h-12l-183 484c-11 28 -20 67 -20 67s-10 -39 -21 -67l-186 -484h-12z" />
    <glyph glyph-name="X" unicode="X" horiz-adv-x="635" 
d="M43 0l233 370l-196 310h82l135 -212c11 -18 22 -47 22 -47s10 30 21 47l134 212h79l-195 -310l235 -370h-82l-173 272c-11 18 -23 48 -23 48s-10 -30 -21 -48l-172 -272h-79z" />
    <glyph glyph-name="Y" unicode="Y" horiz-adv-x="656" 
d="M294 0v213l-257 467h81l185 -338c15 -26 29 -69 29 -69s15 42 29 69l184 338h75l-252 -464v-216h-74z" />
    <glyph glyph-name="Z" unicode="Z" horiz-adv-x="581" 
d="M39 0v11l380 605h-326v64h438v-11l-379 -605h381v-64h-494z" />
    <glyph glyph-name="bracketleft" unicode="[" horiz-adv-x="305" 
d="M76 -128v850h193v-60h-123v-730h123v-60h-193z" />
    <glyph glyph-name="backslash" unicode="\" horiz-adv-x="429" 
d="M344 -128l-301 850h70l301 -850h-70z" />
    <glyph glyph-name="bracketright" unicode="]" horiz-adv-x="305" 
d="M36 -128v60h123v730h-123v60h194v-850h-194z" />
    <glyph glyph-name="asciicircum" unicode="^" horiz-adv-x="417" 
d="M68 463l136 225h9l136 -225h-58l-82 126l-83 -126h-58z" />
    <glyph glyph-name="underscore" unicode="_" horiz-adv-x="256" 
d="M-2 -128v62h260v-62h-260z" />
    <glyph glyph-name="quoteleft" unicode="&#x2018;" horiz-adv-x="199" 
d="M100 475c-28 0 -53 23 -53 52c0 14 5 26 13 41l55 112h38l-34 -104c17 -6 33 -25 33 -48c0 -30 -25 -53 -52 -53z" />
    <glyph glyph-name="a" unicode="a" horiz-adv-x="471" 
d="M331 243v10c0 80 -36 111 -97 111c-58 0 -95 -25 -121 -60l-43 39c36 49 90 80 169 80c92 0 162 -54 162 -169v-254h-70l3 62c-28 -42 -71 -70 -137 -70c-88 0 -152 40 -152 126c0 85 70 125 157 125h129zM331 190h-124c-53 0 -94 -19 -94 -69c0 -47 35 -72 100 -72
c64 0 118 35 118 89v52z" />
    <glyph glyph-name="b" unicode="b" horiz-adv-x="551" 
d="M302 -8c-74 0 -132 40 -160 97l2 -89h-69v722h69v-393c30 55 82 94 159 94c113 0 200 -92 200 -215c0 -124 -88 -216 -201 -216zM288 53c87 0 143 65 143 155c0 89 -56 153 -143 153c-88 0 -147 -64 -147 -153c0 -90 59 -155 147 -155z" />
    <glyph glyph-name="c" unicode="c" horiz-adv-x="467" 
d="M263 -8c-122 0 -215 94 -215 215s93 216 215 216c74 0 125 -28 163 -74l-50 -41c-25 33 -61 53 -113 53c-88 0 -143 -66 -143 -154s55 -154 143 -154c57 0 93 23 119 54l48 -41c-39 -47 -90 -74 -167 -74z" />
    <glyph glyph-name="d" unicode="d" horiz-adv-x="551" 
d="M249 -8c-113 0 -201 92 -201 216c0 123 88 215 200 215c79 0 129 -39 159 -94v393h69v-722h-69l2 89c-28 -57 -86 -97 -160 -97zM263 53c88 0 147 65 147 155c0 89 -59 153 -147 153c-87 0 -143 -64 -143 -153c0 -90 56 -155 143 -155z" />
    <glyph glyph-name="e" unicode="e" horiz-adv-x="516" 
d="M118 184c9 -79 63 -133 154 -133c62 0 104 25 131 55l43 -42c-38 -43 -93 -72 -174 -72c-136 0 -224 94 -224 215s93 216 214 216c133 0 213 -102 208 -239h-352zM119 237h281c-6 71 -51 127 -138 127c-79 0 -132 -51 -143 -127z" />
    <glyph glyph-name="f" unicode="f" horiz-adv-x="318" 
d="M101 0v355h-67v59h67v188c0 93 47 133 115 133c51 0 84 -20 105 -51l-46 -41c-13 17 -25 29 -53 29c-30 0 -51 -17 -51 -70v-188h111v-59h-111v-355h-70z" />
    <glyph glyph-name="g" unicode="g" horiz-adv-x="471" 
d="M294 414h150v-53h-81c21 -22 33 -51 33 -85c0 -85 -65 -148 -161 -148c-32 0 -61 6 -85 19c-22 -6 -34 -22 -34 -42c0 -27 19 -40 54 -42l106 -8c118 -9 174 -52 174 -131c0 -90 -83 -147 -220 -147c-133 0 -212 53 -212 136c0 57 40 90 98 108c-39 13 -58 41 -58 77
c0 35 22 62 57 76c-29 25 -45 61 -45 102c0 86 69 147 165 147c21 0 41 -3 59 -9zM234 182c62 0 99 38 99 94s-37 93 -99 93c-63 0 -100 -37 -100 -93s37 -94 100 -94zM160 0c-44 -13 -73 -39 -73 -81c0 -55 47 -86 143 -86c93 0 149 32 149 88c0 46 -27 66 -115 72z" />
    <glyph glyph-name="h" unicode="h" horiz-adv-x="516" 
d="M74 0v722h70v-389c26 55 80 90 147 90c92 0 155 -63 155 -171v-252h-70v244c0 73 -34 115 -103 115c-77 0 -129 -49 -129 -131v-228h-70z" />
    <glyph glyph-name="i" unicode="i" horiz-adv-x="222" 
d="M111 534c-26 0 -50 20 -50 49s24 50 50 50s50 -21 50 -50s-24 -49 -50 -49zM76 0v414h70v-414h-70z" />
    <glyph glyph-name="j" unicode="j" horiz-adv-x="222" 
d="M111 534c-26 0 -50 20 -50 49s24 50 50 50s50 -21 50 -50s-24 -49 -50 -49zM35 -222c-44 0 -73 20 -92 41l39 42c13 -12 25 -23 48 -23c28 0 46 17 46 63v513h70v-512c0 -82 -45 -124 -111 -124z" />
    <glyph glyph-name="k" unicode="k" horiz-adv-x="463" 
d="M144 126v-126h-70v722h70v-463c0 -21 -2 -42 -5 -59l197 214h81l-159 -174l184 -240h-83l-150 194z" />
    <glyph glyph-name="l" unicode="l" horiz-adv-x="228" 
d="M79 0v722h70v-722h-70z" />
    <glyph glyph-name="m" unicode="m" horiz-adv-x="757" 
d="M74 0v414h70l-2 -78c27 56 72 87 130 87c65 0 107 -35 125 -87c31 56 83 87 143 87c91 0 147 -60 147 -158v-265h-69v256c0 66 -26 103 -91 103c-66 0 -111 -45 -111 -127v-232h-70v256c0 66 -26 103 -90 103c-66 0 -112 -45 -112 -127v-232h-70z" />
    <glyph glyph-name="n" unicode="n" horiz-adv-x="516" 
d="M74 0v414h70l-2 -85c27 59 82 94 149 94c92 0 155 -63 155 -171v-252h-70v244c0 73 -34 115 -103 115c-77 0 -129 -49 -129 -131v-228h-70z" />
    <glyph glyph-name="o" unicode="o" horiz-adv-x="534" 
d="M268 -8c-124 0 -220 94 -220 215s96 216 220 216c123 0 218 -95 218 -216s-95 -215 -218 -215zM268 52c88 0 147 66 147 155s-59 155 -147 155c-89 0 -149 -66 -149 -155s60 -155 149 -155z" />
    <glyph glyph-name="p" unicode="p" horiz-adv-x="551" 
d="M75 -212v626h69l-2 -89c29 57 83 98 161 98c113 0 200 -92 200 -215c0 -124 -88 -216 -201 -216c-74 0 -131 40 -158 94v-298h-69zM288 53c87 0 143 65 143 155c0 89 -56 153 -143 153c-88 0 -147 -64 -147 -153c0 -90 59 -155 147 -155z" />
    <glyph glyph-name="q" unicode="q" horiz-adv-x="552" 
d="M407 -212v298c-27 -54 -84 -94 -158 -94c-113 0 -201 92 -201 216c0 123 88 215 200 215c79 0 132 -41 161 -98l-2 89h70v-626h-70zM263 53c88 0 147 65 147 155c0 89 -59 153 -147 153c-87 0 -143 -64 -143 -153c0 -90 56 -155 143 -155z" />
    <glyph glyph-name="r" unicode="r" horiz-adv-x="357" 
d="M74 0v414h70l-2 -81c26 63 72 89 121 89c31 0 53 -7 72 -20l-27 -61c-13 9 -31 16 -57 16c-59 0 -107 -42 -107 -139v-218h-70z" />
    <glyph glyph-name="s" unicode="s" horiz-adv-x="410" 
d="M213 -8c-91 0 -150 44 -177 96l54 31c24 -40 60 -70 120 -70c56 0 88 24 88 62c0 45 -36 55 -108 76c-65 19 -125 45 -125 123c0 72 60 113 136 113c63 0 109 -26 138 -67l-48 -37c-21 29 -50 47 -90 47c-45 0 -72 -21 -72 -53c0 -39 25 -50 98 -71
c70 -19 137 -47 137 -127c0 -70 -47 -123 -151 -123z" />
    <glyph glyph-name="t" unicode="t" horiz-adv-x="336" 
d="M209 -9c-63 0 -111 36 -111 134v230h-64v59h64v216h69v-216h116v-59h-116v-231c0 -55 19 -72 49 -72c28 0 43 12 56 24l38 -44c-18 -19 -50 -41 -101 -41z" />
    <glyph glyph-name="u" unicode="u" horiz-adv-x="515" 
d="M225 -9c-92 0 -155 63 -155 169v254h70v-247c0 -72 34 -112 102 -112c78 0 129 50 129 131v228h70v-414h-70l2 84c-27 -58 -81 -93 -148 -93z" />
    <glyph glyph-name="v" unicode="v" horiz-adv-x="462" 
d="M226 -8l-201 422h77l110 -239c13 -28 23 -71 23 -71s9 43 22 71l108 239h72l-198 -422h-13z" />
    <glyph glyph-name="w" unicode="w" horiz-adv-x="683" 
d="M195 -9l-170 423h76l89 -228c11 -27 19 -64 19 -64s8 37 21 64l108 234h9l110 -233c13 -28 22 -65 22 -65s8 38 19 65l89 227h71l-172 -423h-10l-114 249c-12 25 -20 61 -20 61s-9 -37 -20 -61l-117 -249h-10z" />
    <glyph glyph-name="x" unicode="x" horiz-adv-x="470" 
d="M31 0l164 220l-142 194h83l78 -108c12 -16 24 -43 24 -43s8 27 20 43l79 108h77l-140 -189l165 -225h-84l-98 136c-11 16 -26 46 -26 46s-12 -30 -24 -46l-99 -136h-77z" />
    <glyph glyph-name="y" unicode="y" horiz-adv-x="462" 
d="M95 -212l106 247l-176 379h77l117 -257c11 -26 19 -70 19 -70s7 44 19 70l108 257h72l-270 -626h-72z" />
    <glyph glyph-name="z" unicode="z" horiz-adv-x="417" 
d="M32 0v10l239 346h-213v58h326v-11l-241 -345h236v-58h-347z" />
    <glyph glyph-name="braceleft" unicode="{" horiz-adv-x="367" 
d="M274 -128c-68 0 -133 27 -133 144v151c0 53 -21 69 -58 69h-58v61h58c37 0 58 16 58 69v212c0 117 65 144 133 144h57v-60h-53c-42 0 -66 -19 -66 -85v-218c0 -62 -28 -84 -65 -92c37 -8 65 -31 65 -93v-157c0 -66 24 -85 66 -85h53v-60h-57z" />
    <glyph glyph-name="bar" unicode="|" horiz-adv-x="237" 
d="M85 -128v850h67v-850h-67z" />
    <glyph glyph-name="braceright" unicode="}" horiz-adv-x="366" 
d="M36 -128v60h53c42 0 66 19 66 85v157c0 62 28 85 65 92c-37 8 -65 31 -65 93v218c0 66 -24 85 -66 85h-53v60h57c67 0 132 -27 132 -144v-211c0 -53 22 -70 59 -70h57v-61h-57c-37 0 -59 -16 -59 -68v-152c0 -117 -65 -144 -132 -144h-57z" />
    <glyph glyph-name="asciitilde" unicode="~" horiz-adv-x="393" 
d="M103 224l-52 5c3 72 37 111 86 111c29 0 47 -13 69 -33c25 -21 32 -28 48 -28c22 0 32 18 36 59l52 -5c-3 -72 -35 -110 -85 -110c-29 0 -47 13 -69 33c-25 21 -32 27 -49 27c-19 0 -32 -19 -36 -59z" />
    <glyph glyph-name="exclamdown" unicode="&#xa1;" horiz-adv-x="244" 
d="M122 687c28 0 53 -23 53 -53c0 -31 -25 -54 -53 -54s-53 23 -53 54c0 30 25 53 53 53zM149 490l12 -490h-78l12 490h54z" />
    <glyph glyph-name="cent" unicode="&#xa2;" horiz-adv-x="470" 
d="M233 -6c-107 14 -185 102 -185 213s78 200 185 214v108h51v-107c63 -4 109 -31 143 -73l-49 -40c-22 28 -52 47 -94 52v-308c46 5 76 25 100 54l48 -41c-36 -43 -82 -69 -148 -73v-109h-51v110zM233 359c-70 -13 -114 -74 -114 -152s43 -139 114 -152v304z" />
    <glyph glyph-name="sterling" unicode="&#xa3;" horiz-adv-x="544" 
d="M165 260h-95v56h71c-17 43 -31 86 -31 131c0 96 74 171 189 171c92 0 155 -49 184 -111l-58 -32c-27 52 -60 80 -126 80c-72 0 -116 -41 -116 -111c0 -43 13 -85 29 -128h162v-56h-141c16 -46 31 -95 31 -148v-5c38 -27 75 -53 121 -53c41 0 68 17 91 43l42 -43
c-29 -36 -70 -62 -131 -62c-58 0 -104 29 -142 60c-23 -35 -65 -60 -113 -60c-63 0 -104 38 -104 91c0 52 41 87 98 87c28 0 52 -9 76 -22c-6 38 -21 75 -37 112zM201 88c-25 19 -47 34 -70 34c-29 0 -46 -17 -46 -41s17 -41 46 -41c31 0 60 20 70 48z" />
    <glyph glyph-name="fraction" unicode="&#x2044;" horiz-adv-x="351" 
d="M-17 0l315 504h70l-315 -504h-70z" />
    <glyph glyph-name="fraction" unicode="&#x2215;" horiz-adv-x="351" 
d="M-17 0l315 504h70l-315 -504h-70z" />
    <glyph glyph-name="yen" unicode="&#xa5;" horiz-adv-x="558" 
d="M166 292l-125 212h79l134 -233c16 -29 27 -67 27 -67s12 38 28 67l134 233h74l-125 -212h107v-56h-140l-41 -69h181v-56h-184v-111h-72v111h-185v56h182l-41 69h-141v56h108z" />
    <glyph glyph-name="florin" unicode="&#x192;" horiz-adv-x="358" 
d="M174 203l-47 -415h-68l47 415h-68v57h74l26 224c10 94 57 134 123 134c54 0 83 -21 103 -54l-48 -39c-13 19 -25 33 -52 33c-31 0 -52 -17 -58 -71l-26 -227h94v-57h-100z" />
    <glyph glyph-name="section" unicode="&#xa7;" horiz-adv-x="495" 
d="M113 405c-13 21 -20 45 -20 74c0 82 67 139 156 139c84 0 133 -41 160 -101l-57 -26c-19 39 -46 69 -101 69s-90 -30 -90 -79c0 -43 19 -67 71 -88l98 -39c94 -37 133 -82 133 -145c0 -50 -33 -85 -80 -104c15 -21 23 -45 23 -74c0 -79 -58 -134 -163 -134
c-89 0 -156 47 -184 108l56 28c23 -45 64 -77 126 -77c60 0 95 30 95 75c0 40 -26 61 -82 83l-89 35c-92 35 -133 77 -133 148c0 50 32 87 81 108zM349 138c30 13 48 33 48 62c0 41 -20 64 -87 91l-98 39c-27 11 -52 25 -72 42c-28 -14 -41 -38 -41 -67c0 -45 21 -68 84 -93
l91 -35c29 -11 54 -23 75 -39z" />
    <glyph glyph-name="currency" unicode="&#xa4;" horiz-adv-x="621" 
d="M113 283h-73v56h85c34 104 130 173 244 173c89 0 153 -33 199 -94l-52 -40c-35 47 -77 73 -147 73c-80 0 -143 -43 -171 -112h217v-56h-231c-1 -10 -2 -20 -2 -31s1 -22 2 -32h231v-56h-216c28 -69 92 -111 170 -111c76 0 119 29 154 76l51 -36
c-41 -63 -110 -101 -205 -101c-113 0 -209 69 -244 172h-85v56h73c-1 10 -2 21 -2 32s1 21 2 31z" />
    <glyph glyph-name="quotesingle" unicode="'" horiz-adv-x="154" 
d="M48 470l-8 210h74l-8 -210h-58z" />
    <glyph glyph-name="quotedblleft" unicode="&#x201c;" horiz-adv-x="357" 
d="M258 475c-28 0 -53 23 -53 52c0 14 6 26 13 41l56 112h37l-34 -104c18 -6 33 -25 33 -48c0 -30 -25 -53 -52 -53zM100 475c-28 0 -53 23 -53 52c0 14 5 26 13 41l55 112h38l-34 -104c17 -6 33 -25 33 -48c0 -30 -25 -53 -52 -53z" />
    <glyph glyph-name="guillemotleft" unicode="&#xab;" horiz-adv-x="397" 
d="M287 37l-94 159v8l94 157h72l-96 -161l96 -163h-72zM132 37l-94 159v8l94 157h72l-96 -161l96 -163h-72z" />
    <glyph glyph-name="guilsinglleft" unicode="&#x2039;" horiz-adv-x="242" 
d="M132 37l-94 159v8l94 157h72l-96 -161l96 -163h-72z" />
    <glyph glyph-name="guilsinglright" unicode="&#x203a;" horiz-adv-x="242" 
d="M38 37l96 162l-96 162h72l94 -158v-8l-94 -158h-72z" />
    <glyph glyph-name="endash" unicode="&#x2013;" horiz-adv-x="394" 
d="M35 163v61h323v-61h-323z" />
    <glyph glyph-name="dagger" unicode="&#x2020;" horiz-adv-x="337" 
d="M136 280v238h-93v58h93v104h65v-104h93v-58h-93v-238h-65z" />
    <glyph glyph-name="daggerdbl" unicode="&#x2021;" horiz-adv-x="337" 
d="M136 280v105h-93v54h93v82h-93v55h93v104h65v-104h93v-55h-93v-82h93v-54h-93v-105h-65z" />
    <glyph glyph-name="periodcentered" unicode="&#xb7;" horiz-adv-x="202" 
d="M101 189c-28 0 -54 24 -54 55s26 54 54 54c29 0 54 -23 54 -54s-25 -55 -54 -55z" />
    <glyph glyph-name="periodcentered" unicode="&#x2219;" horiz-adv-x="202" 
d="M101 189c-28 0 -54 24 -54 55s26 54 54 54c29 0 54 -23 54 -54s-25 -55 -54 -55z" />
    <glyph glyph-name="paragraph" unicode="&#xb6;" horiz-adv-x="625" 
d="M312 0v304h-64c-124 0 -197 84 -197 187c0 102 73 189 197 189h284v-680h-69v618h-80v-618h-71zM249 365h63v253h-63c-76 0 -121 -50 -121 -126s45 -127 121 -127z" />
    <glyph glyph-name="bullet" unicode="&#x2022;" horiz-adv-x="279" 
d="M139 168c-51 0 -94 42 -94 94c0 54 43 95 94 95s95 -41 95 -95c0 -52 -44 -94 -95 -94z" />
    <glyph glyph-name="quotesinglbase" unicode="&#x201a;" horiz-adv-x="199" 
d="M46 -103l34 105c-18 5 -33 24 -33 48c0 29 25 52 52 52c28 0 53 -23 53 -52c0 -13 -6 -26 -13 -40l-56 -113h-37z" />
    <glyph glyph-name="quotedblbase" unicode="&#x201e;" horiz-adv-x="357" 
d="M204 -103l34 105c-17 5 -33 24 -33 48c0 29 25 52 52 52c28 0 53 -23 53 -52c0 -13 -5 -26 -13 -40l-55 -113h-38zM46 -103l34 105c-18 5 -33 24 -33 48c0 29 25 52 52 52c28 0 53 -23 53 -52c0 -13 -6 -26 -13 -40l-56 -113h-37z" />
    <glyph glyph-name="quotedblright" unicode="&#x201d;" horiz-adv-x="357" 
d="M204 482l34 104c-17 6 -33 25 -33 48c0 30 25 53 52 53c28 0 53 -23 53 -52c0 -14 -5 -26 -13 -41l-55 -112h-38zM46 482l34 104c-18 6 -33 25 -33 48c0 30 25 53 52 53c28 0 53 -23 53 -52c0 -14 -6 -26 -13 -41l-56 -112h-37z" />
    <glyph glyph-name="guillemotright" unicode="&#xbb;" horiz-adv-x="397" 
d="M193 37l96 162l-96 162h72l94 -158v-8l-94 -158h-72zM38 37l96 162l-96 162h72l94 -158v-8l-94 -158h-72z" />
    <glyph glyph-name="ellipsis" unicode="&#x2026;" horiz-adv-x="616" 
d="M515 -7c-28 0 -54 24 -54 55s26 54 54 54c29 0 54 -23 54 -54s-25 -55 -54 -55zM308 -7c-28 0 -54 24 -54 55s26 54 54 54c29 0 54 -23 54 -54s-25 -55 -54 -55zM101 -7c-28 0 -54 24 -54 55s26 54 54 54c29 0 54 -23 54 -54s-25 -55 -54 -55z" />
    <glyph glyph-name="perthousand" unicode="&#x2030;" horiz-adv-x="1111" 
d="M178 218c-80 0 -150 61 -150 147c0 85 70 147 150 147c79 0 149 -62 149 -147c0 -86 -70 -147 -149 -147zM191 0l315 504h70l-315 -504h-70zM934 -8c-79 0 -149 61 -149 146s70 147 149 147c80 0 149 -62 149 -147s-69 -146 -149 -146zM589 -8c-80 0 -149 61 -149 146
s69 147 149 147s149 -62 149 -147s-69 -146 -149 -146zM178 273c48 0 88 37 88 92c0 56 -40 92 -88 92s-89 -36 -89 -92c0 -55 41 -92 89 -92zM934 46c48 0 88 37 88 92s-40 92 -88 92c-47 0 -88 -37 -88 -92s41 -92 88 -92zM589 46c48 0 88 37 88 92s-40 92 -88 92
s-88 -37 -88 -92s40 -92 88 -92z" />
    <glyph glyph-name="questiondown" unicode="&#xbf;" horiz-adv-x="469" 
d="M263 687c28 0 53 -23 53 -53c0 -31 -25 -54 -53 -54s-53 23 -53 54c0 30 25 53 53 53zM295 493v-176h-33c-89 0 -140 -60 -140 -134c0 -79 51 -128 125 -128c67 0 107 28 137 88l58 -30c-33 -79 -104 -121 -195 -121c-118 0 -197 77 -197 191c0 106 73 181 179 189v121
h66z" />
    <glyph glyph-name="grave" unicode="`" horiz-adv-x="500" 
d="M224 498l-93 193h80l68 -193h-55z" />
    <glyph glyph-name="acute" unicode="&#xb4;" horiz-adv-x="500" 
d="M221 498l68 193h80l-93 -193h-55z" />
    <glyph glyph-name="circumflex" unicode="&#x2c6;" horiz-adv-x="500" 
d="M117 496l128 193h9l128 -193h-61l-71 99l-72 -99h-61z" />
    <glyph glyph-name="tilde" unicode="&#x2dc;" horiz-adv-x="500" 
d="M156 493l-52 4c4 72 38 111 87 111c28 0 47 -13 69 -32c25 -22 32 -28 48 -28c21 0 32 18 36 58l52 -5c-4 -71 -36 -110 -86 -110c-28 0 -47 14 -69 33c-25 22 -32 28 -48 28c-20 0 -33 -19 -37 -59z" />
    <glyph glyph-name="macron" unicode="&#xaf;" horiz-adv-x="500" 
d="M145 518v55h210v-55h-210z" />
    <glyph glyph-name="macron" unicode="&#x2c9;" horiz-adv-x="500" 
d="M145 518v55h210v-55h-210z" />
    <glyph glyph-name="breve" unicode="&#x2d8;" horiz-adv-x="500" 
d="M250 489c-77 0 -121 50 -131 116l56 10c9 -40 28 -71 75 -71s66 31 75 71l56 -10c-10 -66 -54 -116 -131 -116z" />
    <glyph glyph-name="dotaccent" unicode="&#x2d9;" horiz-adv-x="500" 
d="M250 516c-24 0 -47 19 -47 46s23 47 47 47s47 -20 47 -47s-23 -46 -47 -46z" />
    <glyph glyph-name="dieresis" unicode="&#xa8;" horiz-adv-x="500" 
d="M337 516c-24 0 -47 21 -47 46c0 26 23 46 47 46s46 -20 46 -46c0 -25 -22 -46 -46 -46zM163 516c-24 0 -46 21 -46 46c0 26 22 46 46 46c25 0 47 -20 47 -46c0 -25 -22 -46 -47 -46z" />
    <glyph glyph-name="ring" unicode="&#x2da;" horiz-adv-x="500" 
d="M250 484c-59 0 -105 45 -105 100c0 56 46 101 105 101s105 -45 105 -101c0 -55 -46 -100 -105 -100zM250 529c31 0 52 22 52 55c0 34 -21 55 -52 55s-52 -21 -52 -55c0 -33 21 -55 52 -55z" />
    <glyph glyph-name="cedilla" unicode="&#xb8;" horiz-adv-x="500" 
d="M256 -232c-52 0 -85 27 -101 59l43 25c12 -20 23 -37 54 -37c24 0 45 15 45 45c0 26 -17 47 -53 47h-22v93h48v-53c42 -6 82 -38 82 -91c0 -56 -47 -88 -96 -88z" />
    <glyph glyph-name="hungarumlaut" unicode="&#x2dd;" horiz-adv-x="500" 
d="M289 498l68 193h76l-89 -193h-55zM151 498l67 193h76l-88 -193h-55z" />
    <glyph glyph-name="ogonek" unicode="&#x2db;" horiz-adv-x="500" 
d="M238 -232c-49 0 -93 29 -93 88c0 41 20 73 41 101l32 43h51l-36 -59c-21 -34 -31 -53 -31 -83c0 -28 18 -41 39 -41c26 0 40 17 51 35l44 -25c-17 -33 -47 -59 -98 -59z" />
    <glyph glyph-name="caron" unicode="&#x2c7;" horiz-adv-x="500" 
d="M246 488l-128 193h61l71 -99l72 99h61l-128 -193h-9z" />
    <glyph glyph-name="emdash" unicode="&#x2014;" horiz-adv-x="623" 
d="M35 163v61h553v-61h-553z" />
    <glyph glyph-name="AE" unicode="&#xc6;" horiz-adv-x="953" 
d="M27 0l454 680h399v-64h-341v-319h304v-63h-304v-170h355v-64h-428v114h-286l-76 -114h-77zM223 178h243v308c0 36 7 84 7 84s-20 -44 -41 -75z" />
    <glyph glyph-name="ordfeminine" unicode="&#xaa;" horiz-adv-x="402" 
d="M284 363c0 74 -32 95 -82 95c-53 0 -82 -27 -101 -50l-40 35c27 38 74 69 146 69c79 0 142 -42 142 -147v-211h-65l1 46c-23 -33 -63 -54 -114 -54c-74 0 -132 36 -132 109s64 108 139 108h106zM284 314h-99c-46 0 -81 -14 -81 -57c0 -40 31 -59 82 -59c54 0 98 28 98 76
v40z" />
    <glyph glyph-name="Lslash" unicode="&#x141;" horiz-adv-x="531" 
d="M96 0v199l-75 -29v65l75 29v416h73v-389l199 78v-65l-199 -79v-161h321v-64h-394z" />
    <glyph glyph-name="Oslash" unicode="&#xd8;" horiz-adv-x="807" 
d="M674 566c49 -59 79 -137 79 -226c0 -205 -156 -348 -350 -348c-86 0 -165 28 -226 78l-80 -80l-45 44l81 80c-49 59 -79 137 -79 226c0 205 156 348 349 348c87 0 166 -29 227 -79l80 80l44 -44zM184 165c0 0 397 395 396 395c-46 40 -108 63 -177 63
c-158 0 -274 -121 -274 -283c0 -67 20 -127 55 -175zM623 515l-396 -396c47 -39 108 -62 176 -62c159 0 275 121 275 283c0 67 -20 127 -55 175z" />
    <glyph glyph-name="OE" unicode="&#x152;" horiz-adv-x="987" 
d="M412 0c-221 0 -358 139 -358 340s136 340 358 340h502v-64h-341v-319h304v-63h-304v-170h355v-64h-516zM418 65h83v550h-83c-194 0 -289 -113 -289 -275s95 -275 289 -275z" />
    <glyph glyph-name="ordmasculine" unicode="&#xba;" horiz-adv-x="454" 
d="M227 146c-102 0 -185 78 -185 183c0 104 83 183 185 183s185 -79 185 -183c0 -105 -83 -183 -185 -183zM227 201c71 0 119 53 119 128c0 74 -48 127 -119 127s-118 -53 -118 -127c0 -75 47 -128 118 -128z" />
    <glyph glyph-name="ae" unicode="&#xe6;" horiz-adv-x="799" 
d="M331 240v12c0 81 -36 112 -97 112c-58 0 -95 -25 -121 -60l-43 39c36 49 90 80 169 80c68 0 116 -34 137 -94c34 53 94 94 168 94c134 0 213 -102 209 -235h-353c8 -79 62 -137 154 -137c62 0 104 25 132 55l42 -42c-38 -43 -93 -72 -173 -72c-85 0 -148 38 -182 97
c-22 -66 -95 -97 -167 -97c-94 0 -161 40 -161 125c0 86 72 123 157 123h129zM402 240h280c-6 65 -50 124 -137 124c-78 0 -131 -52 -143 -124zM331 188h-124c-52 0 -94 -17 -94 -68c0 -48 34 -71 100 -71c64 0 118 35 118 89v50z" />
    <glyph glyph-name="dotlessi" unicode="&#x131;" horiz-adv-x="222" 
d="M76 0v414h70v-414h-70z" />
    <glyph glyph-name="lslash" unicode="&#x142;" horiz-adv-x="267" 
d="M99 0v241l-85 -51v69l85 52v411h70v-371l88 54v-69l-88 -54v-282h-70z" />
    <glyph glyph-name="oslash" unicode="&#xf8;" horiz-adv-x="534" 
d="M444 336c26 -36 42 -80 42 -129c0 -121 -95 -215 -218 -215c-54 0 -104 19 -142 50l-58 -54l-35 37l58 53c-27 36 -43 80 -43 129c0 121 96 216 220 216c54 0 103 -19 140 -50l57 52l35 -37zM138 122l225 208c-25 21 -57 33 -95 33c-90 0 -151 -66 -151 -156
c0 -32 8 -60 21 -85zM396 291l-225 -207c26 -21 59 -33 97 -33c89 0 149 66 149 156c0 32 -7 61 -21 84z" />
    <glyph glyph-name="oe" unicode="&#x153;" horiz-adv-x="881" 
d="M482 184c9 -79 62 -133 154 -133c62 0 104 25 131 55l43 -42c-38 -43 -93 -72 -173 -72c-94 0 -158 47 -188 115c-30 -68 -96 -115 -181 -115c-124 0 -220 94 -220 215s96 216 220 216c86 0 151 -47 181 -116c29 68 93 116 177 116c133 0 213 -102 208 -239h-352z
M483 237h281c-6 71 -51 127 -138 127c-79 0 -132 -51 -143 -127zM268 52c88 0 147 66 147 155s-59 155 -147 155c-89 0 -149 -66 -149 -155s60 -155 149 -155z" />
    <glyph glyph-name="germandbls" unicode="&#xdf;" horiz-adv-x="540" 
d="M283 -5c-31 0 -59 6 -76 13l15 57c14 -6 28 -9 54 -9c96 0 144 62 144 154c0 99 -65 159 -180 157v58c72 8 117 56 117 133c0 83 -48 118 -105 118c-58 0 -108 -35 -108 -131v-545h-70v546c0 131 84 189 178 189s171 -60 171 -175c0 -69 -31 -126 -96 -154
c98 -19 165 -90 165 -197c0 -123 -75 -214 -209 -214z" />
    <glyph glyph-name="onesuperior" unicode="&#xb9;" 
d="M101 189c-28 0 -54 24 -54 55s26 54 54 54c29 0 54 -23 54 -54s-25 -55 -54 -55z" />
    <glyph glyph-name="logicalnot" unicode="&#xac;" 
d="M101 189c-28 0 -54 24 -54 55s26 54 54 54c29 0 54 -23 54 -54s-25 -55 -54 -55z" />
    <glyph glyph-name="mu" unicode="&#xb5;" 
d="M101 189c-28 0 -54 24 -54 55s26 54 54 54c29 0 54 -23 54 -54s-25 -55 -54 -55z" />
    <glyph glyph-name="mu" unicode="&#x3bc;" 
d="M101 189c-28 0 -54 24 -54 55s26 54 54 54c29 0 54 -23 54 -54s-25 -55 -54 -55z" />
    <glyph glyph-name="trademark" unicode="&#x2122;" horiz-adv-x="725" 
d="M346 383v302h9l144 -161l143 161h9v-302h-54v187l-93 -111h-10l-94 111v-187h-54zM138 383v251h-90v46h234v-46h-90v-251h-54z" />
    <glyph glyph-name="Eth" unicode="&#xd0;" horiz-adv-x="680" 
d="M93 0v242h-79v63h79v375h173c221 0 360 -139 360 -340s-138 -340 -360 -340h-173zM165 65h96c194 0 289 113 289 275s-95 275 -289 275h-96v-310h183v-63h-183v-177z" />
    <glyph glyph-name="onehalf" unicode="&#xbd;" 
d="M101 189c-28 0 -54 24 -54 55s26 54 54 54c29 0 54 -23 54 -54s-25 -55 -54 -55z" />
    <glyph glyph-name="plusminus" horiz-adv-x="763" 
d="M101 0v355h-67v59h67v168c0 93 47 133 114 133c49 0 81 -17 102 -44l-45 -44c-12 15 -26 25 -50 25c-30 0 -51 -16 -51 -70v-168h186v152c0 112 78 169 164 169c85 0 162 -51 162 -165v-570h-70v565c0 75 -37 107 -92 107s-94 -32 -94 -107v-151h106v-59h-106v-355h-70
v355h-186v-355h-70z" />
    <glyph glyph-name="Thorn" unicode="&#xde;" horiz-adv-x="584" 
d="M93 0v680h72v-79h88c182 0 275 -108 275 -256c0 -149 -93 -256 -275 -256h-88v-89h-72zM165 153h84c149 0 204 80 204 192s-55 192 -204 192h-84v-384z" />
    <glyph glyph-name="onequarter" unicode="&#xbc;" 
d="M101 189c-28 0 -54 24 -54 55s26 54 54 54c29 0 54 -23 54 -54s-25 -55 -54 -55z" />
    <glyph glyph-name="divide" unicode="&#xf7;" 
d="M101 189c-28 0 -54 24 -54 55s26 54 54 54c29 0 54 -23 54 -54s-25 -55 -54 -55z" />
    <glyph glyph-name="brokenbar" unicode="&#xa6;" 
d="M101 189c-28 0 -54 24 -54 55s26 54 54 54c29 0 54 -23 54 -54s-25 -55 -54 -55z" />
    <glyph glyph-name="degree" unicode="&#xb0;" horiz-adv-x="325" 
d="M163 286c-65 0 -117 50 -117 113c0 64 52 113 117 113c64 0 116 -49 116 -113c0 -63 -52 -113 -116 -113zM163 332c38 0 64 28 64 67s-26 67 -64 67c-39 0 -65 -28 -65 -67s26 -67 65 -67z" />
    <glyph glyph-name="thorn" unicode="&#xfe;" horiz-adv-x="552" 
d="M76 -212v934h70v-393c29 55 83 94 160 94c113 0 198 -92 198 -215c0 -124 -86 -216 -199 -216c-74 0 -132 40 -159 94v-298h-70zM289 53c87 0 143 65 143 155c0 89 -56 153 -143 153c-88 0 -147 -64 -147 -153c0 -90 59 -155 147 -155z" />
    <glyph glyph-name="threequarters" unicode="&#xbe;" 
d="M101 189c-28 0 -54 24 -54 55s26 54 54 54c29 0 54 -23 54 -54s-25 -55 -54 -55z" />
    <glyph glyph-name="twosuperior" unicode="&#xb2;" 
d="M101 189c-28 0 -54 24 -54 55s26 54 54 54c29 0 54 -23 54 -54s-25 -55 -54 -55z" />
    <glyph glyph-name="registered" unicode="&#xae;" horiz-adv-x="514" 
d="M255 265c-119 0 -217 91 -217 214c0 125 98 215 217 215c121 0 221 -90 221 -215c0 -123 -100 -214 -221 -214zM255 300c104 0 181 71 181 179c0 109 -77 180 -181 180c-102 0 -176 -71 -176 -180c0 -108 74 -179 176 -179zM306 432l47 -70h-48l-39 59
c-4 -1 -9 -1 -14 -1h-30v-58h-44v237h73c69 0 102 -42 102 -90c0 -32 -16 -62 -47 -77zM222 455h29c41 0 58 20 58 53c0 32 -17 54 -58 54h-29v-107z" />
    <glyph glyph-name="minus" unicode="&#x2212;" 
d="M101 189c-28 0 -54 24 -54 55s26 54 54 54c29 0 54 -23 54 -54s-25 -55 -54 -55z" />
    <glyph glyph-name="eth" unicode="&#xf0;" horiz-adv-x="534" 
d="M276 575l-67 -65l-35 35l70 68c-27 31 -56 59 -84 82l39 43c28 -22 58 -49 89 -81l67 66l37 -36l-70 -67c86 -100 164 -238 164 -402c0 -130 -95 -226 -218 -226c-124 0 -220 94 -220 215c0 122 97 216 212 216c59 0 104 -24 135 -65c-21 78 -66 153 -119 217zM268 52
c88 0 147 68 147 159c0 87 -59 151 -147 151c-89 0 -149 -66 -149 -155s60 -155 149 -155z" />
    <glyph glyph-name="multiply" unicode="&#xd7;" 
d="M101 189c-28 0 -54 24 -54 55s26 54 54 54c29 0 54 -23 54 -54s-25 -55 -54 -55z" />
    <glyph glyph-name="threesuperior" unicode="&#xb3;" 
d="M101 189c-28 0 -54 24 -54 55s26 54 54 54c29 0 54 -23 54 -54s-25 -55 -54 -55z" />
    <glyph glyph-name="copyright" unicode="&#xa9;" horiz-adv-x="598" 
d="M300 -7c-142 0 -261 110 -261 259c0 150 119 260 261 260c140 0 259 -110 259 -260c0 -149 -119 -259 -259 -259zM300 33c121 0 217 91 217 219c0 129 -96 220 -217 220c-122 0 -219 -91 -219 -220c0 -128 97 -219 219 -219zM303 103c-84 0 -148 64 -148 149
c0 86 64 150 146 150c54 0 87 -21 115 -51l-41 -38c-17 22 -38 34 -70 34c-51 0 -86 -40 -86 -95c0 -53 35 -94 86 -94c35 0 57 16 73 36l41 -38c-25 -29 -61 -53 -116 -53z" />
    <glyph glyph-name="Aacute" unicode="&#xc1;" horiz-adv-x="656" 
d="M299 753l68 193h80l-93 -193h-55zM37 0l282 687h12l288 -687h-76l-46 114h-344l-45 -114h-71zM178 176h293l-120 302c-13 32 -26 81 -26 81s-14 -49 -27 -81z" />
    <glyph glyph-name="Acircumflex" unicode="&#xc2;" horiz-adv-x="656" 
d="M192 751l128 193h9l128 -193h-61l-71 99l-72 -99h-61zM37 0l282 687h12l288 -687h-76l-46 114h-344l-45 -114h-71zM178 176h293l-120 302c-13 32 -26 81 -26 81s-14 -49 -27 -81z" />
    <glyph glyph-name="Adieresis" unicode="&#xc4;" horiz-adv-x="656" 
d="M414 771c-24 0 -47 21 -47 46c0 26 23 46 47 46s46 -20 46 -46c0 -25 -22 -46 -46 -46zM240 771c-24 0 -46 21 -46 46c0 26 22 46 46 46c25 0 47 -20 47 -46c0 -25 -22 -46 -47 -46zM37 0l282 687h12l288 -687h-76l-46 114h-344l-45 -114h-71zM178 176h293l-120 302
c-13 32 -26 81 -26 81s-14 -49 -27 -81z" />
    <glyph glyph-name="Agrave" unicode="&#xc0;" horiz-adv-x="656" 
d="M299 753l-93 193h80l68 -193h-55zM37 0l282 687h12l288 -687h-76l-46 114h-344l-45 -114h-71zM178 176h293l-120 302c-13 32 -26 81 -26 81s-14 -49 -27 -81z" />
    <glyph glyph-name="Aring" unicode="&#xc5;" horiz-adv-x="656" 
d="M327 727c-59 0 -105 45 -105 100c0 56 46 101 105 101s105 -45 105 -101c0 -55 -46 -100 -105 -100zM37 0l282 687h12l288 -687h-76l-46 114h-344l-45 -114h-71zM327 772c31 0 52 22 52 55c0 34 -21 55 -52 55s-52 -21 -52 -55c0 -33 21 -55 52 -55zM178 176h293
l-120 302c-13 32 -26 81 -26 81s-14 -49 -27 -81z" />
    <glyph glyph-name="Atilde" unicode="&#xc3;" horiz-adv-x="656" 
d="M231 748l-52 4c4 72 38 111 87 111c28 0 47 -13 69 -32c25 -22 32 -28 48 -28c21 0 32 18 36 58l52 -5c-4 -71 -36 -110 -86 -110c-28 0 -47 14 -69 33c-25 22 -32 28 -48 28c-20 0 -33 -19 -37 -59zM37 0l282 687h12l288 -687h-76l-46 114h-344l-45 -114h-71zM178 176
h293l-120 302c-13 32 -26 81 -26 81s-14 -49 -27 -81z" />
    <glyph glyph-name="Ccedilla" unicode="&#xc7;" horiz-adv-x="726" 
d="M403 -8v-45c42 -6 82 -38 82 -91c0 -56 -47 -88 -96 -88c-52 0 -85 27 -101 59l43 25c12 -20 23 -37 54 -37c24 0 45 15 45 45c0 26 -17 47 -53 47h-22v88c-170 21 -301 157 -301 345c0 205 156 348 349 348c120 0 212 -45 270 -132l-55 -40c-44 65 -117 107 -215 107
c-159 0 -274 -121 -274 -283s115 -283 274 -283c99 0 175 43 224 114l56 -39c-60 -88 -158 -140 -280 -140z" />
    <glyph glyph-name="Eacute" unicode="&#xc9;" horiz-adv-x="580" 
d="M269 753l68 193h80l-93 -193h-55zM93 0v680h414v-64h-342v-319h305v-63h-305v-170h356v-64h-428z" />
    <glyph glyph-name="Ecircumflex" unicode="&#xca;" horiz-adv-x="580" 
d="M172 751l128 193h9l128 -193h-61l-71 99l-72 -99h-61zM93 0v680h414v-64h-342v-319h305v-63h-305v-170h356v-64h-428z" />
    <glyph glyph-name="Edieresis" unicode="&#xcb;" horiz-adv-x="580" 
d="M391 771c-24 0 -47 21 -47 46c0 26 23 46 47 46s46 -20 46 -46c0 -25 -22 -46 -46 -46zM217 771c-24 0 -46 21 -46 46c0 26 22 46 46 46c25 0 47 -20 47 -46c0 -25 -22 -46 -47 -46zM93 0v680h414v-64h-342v-319h305v-63h-305v-170h356v-64h-428z" />
    <glyph glyph-name="Egrave" unicode="&#xc8;" horiz-adv-x="580" 
d="M281 753l-93 193h80l68 -193h-55zM93 0v680h414v-64h-342v-319h305v-63h-305v-170h356v-64h-428z" />
    <glyph glyph-name="Iacute" unicode="&#xcd;" horiz-adv-x="265" 
d="M106 753l68 193h80l-93 -193h-55zM96 0v680h73v-680h-73z" />
    <glyph glyph-name="Icircumflex" unicode="&#xce;" horiz-adv-x="265" 
d="M-1 751l128 193h9l128 -193h-61l-71 99l-72 -99h-61zM96 0v680h73v-680h-73z" />
    <glyph glyph-name="Idieresis" unicode="&#xcf;" horiz-adv-x="265" 
d="M219 771c-24 0 -47 21 -47 46c0 26 23 46 47 46s46 -20 46 -46c0 -25 -22 -46 -46 -46zM45 771c-24 0 -46 21 -46 46c0 26 22 46 46 46c25 0 47 -20 47 -46c0 -25 -22 -46 -47 -46zM96 0v680h73v-680h-73z" />
    <glyph glyph-name="Igrave" unicode="&#xcc;" horiz-adv-x="265" 
d="M103 753l-93 193h80l68 -193h-55zM96 0v680h73v-680h-73z" />
    <glyph glyph-name="Ntilde" unicode="&#xd1;" horiz-adv-x="713" 
d="M262 748l-52 4c4 72 38 111 87 111c28 0 47 -13 69 -32c25 -22 32 -28 48 -28c21 0 32 18 36 58l52 -5c-4 -71 -36 -110 -86 -110c-28 0 -47 14 -69 33c-25 22 -32 28 -48 28c-20 0 -33 -19 -37 -59zM608 -7l-406 480c-19 23 -47 63 -47 63s6 -48 6 -77v-459h-68v687h12
l406 -480c19 -23 47 -63 47 -63s-5 48 -5 77v459h67v-687h-12z" />
    <glyph glyph-name="Oacute" unicode="&#xd3;" horiz-adv-x="807" 
d="M374 753l68 193h80l-93 -193h-55zM403 -8c-193 0 -349 143 -349 348s156 348 349 348c194 0 350 -143 350 -348s-156 -348 -350 -348zM403 57c159 0 275 121 275 283s-116 283 -275 283c-158 0 -274 -121 -274 -283s116 -283 274 -283z" />
    <glyph glyph-name="Ocircumflex" unicode="&#xd4;" horiz-adv-x="807" 
d="M270 751l128 193h9l128 -193h-61l-71 99l-72 -99h-61zM403 -8c-193 0 -349 143 -349 348s156 348 349 348c194 0 350 -143 350 -348s-156 -348 -350 -348zM403 57c159 0 275 121 275 283s-116 283 -275 283c-158 0 -274 -121 -274 -283s116 -283 274 -283z" />
    <glyph glyph-name="Odieresis" unicode="&#xd6;" horiz-adv-x="807" 
d="M490 771c-24 0 -47 21 -47 46c0 26 23 46 47 46s46 -20 46 -46c0 -25 -22 -46 -46 -46zM316 771c-24 0 -46 21 -46 46c0 26 22 46 46 46c25 0 47 -20 47 -46c0 -25 -22 -46 -47 -46zM403 -8c-193 0 -349 143 -349 348s156 348 349 348c194 0 350 -143 350 -348
s-156 -348 -350 -348zM403 57c159 0 275 121 275 283s-116 283 -275 283c-158 0 -274 -121 -274 -283s116 -283 274 -283z" />
    <glyph glyph-name="Ograve" unicode="&#xd2;" horiz-adv-x="807" 
d="M377 753l-93 193h80l68 -193h-55zM403 -8c-193 0 -349 143 -349 348s156 348 349 348c194 0 350 -143 350 -348s-156 -348 -350 -348zM403 57c159 0 275 121 275 283s-116 283 -275 283c-158 0 -274 -121 -274 -283s116 -283 274 -283z" />
    <glyph glyph-name="Otilde" unicode="&#xd5;" horiz-adv-x="807" 
d="M309 748l-52 4c4 72 38 111 87 111c28 0 47 -13 69 -32c25 -22 32 -28 48 -28c21 0 32 18 36 58l52 -5c-4 -71 -36 -110 -86 -110c-28 0 -47 14 -69 33c-25 22 -32 28 -48 28c-20 0 -33 -19 -37 -59zM403 -8c-193 0 -349 143 -349 348s156 348 349 348
c194 0 350 -143 350 -348s-156 -348 -350 -348zM403 57c159 0 275 121 275 283s-116 283 -275 283c-158 0 -274 -121 -274 -283s116 -283 274 -283z" />
    <glyph glyph-name="Scaron" unicode="&#x160;" horiz-adv-x="531" 
d="M246 743l-128 193h61l71 -99l72 99h61l-128 -193h-9zM266 -8c-130 0 -201 66 -237 138l60 32c32 -57 79 -106 175 -106c79 0 141 44 141 116c0 69 -43 104 -128 142l-54 25c-97 44 -150 91 -150 186c0 98 77 163 179 163c91 0 148 -42 184 -102l-58 -36
c-26 42 -62 74 -126 74c-67 0 -108 -39 -108 -97c0 -60 32 -87 108 -122l54 -25c113 -50 171 -106 171 -208c0 -112 -89 -180 -211 -180z" />
    <glyph glyph-name="Uacute" unicode="&#xda;" horiz-adv-x="662" 
d="M302 753l68 193h80l-93 -193h-55zM331 -8c-139 0 -244 81 -244 240v448h72v-443c0 -121 66 -181 172 -181c105 0 172 60 172 181v443h72v-448c0 -159 -106 -240 -244 -240z" />
    <glyph glyph-name="Ucircumflex" unicode="&#xdb;" horiz-adv-x="662" 
d="M198 751l128 193h9l128 -193h-61l-71 99l-72 -99h-61zM331 -8c-139 0 -244 81 -244 240v448h72v-443c0 -121 66 -181 172 -181c105 0 172 60 172 181v443h72v-448c0 -159 -106 -240 -244 -240z" />
    <glyph glyph-name="Udieresis" unicode="&#xdc;" horiz-adv-x="662" 
d="M418 771c-24 0 -47 21 -47 46c0 26 23 46 47 46s46 -20 46 -46c0 -25 -22 -46 -46 -46zM244 771c-24 0 -46 21 -46 46c0 26 22 46 46 46c25 0 47 -20 47 -46c0 -25 -22 -46 -47 -46zM331 -8c-139 0 -244 81 -244 240v448h72v-443c0 -121 66 -181 172 -181
c105 0 172 60 172 181v443h72v-448c0 -159 -106 -240 -244 -240z" />
    <glyph glyph-name="Ugrave" unicode="&#xd9;" horiz-adv-x="662" 
d="M305 753l-93 193h80l68 -193h-55zM331 -8c-139 0 -244 81 -244 240v448h72v-443c0 -121 66 -181 172 -181c105 0 172 60 172 181v443h72v-448c0 -159 -106 -240 -244 -240z" />
    <glyph glyph-name="Yacute" unicode="&#xdd;" horiz-adv-x="656" 
d="M299 753l68 193h80l-93 -193h-55zM294 0v213l-257 467h81l185 -338c15 -26 29 -69 29 -69s15 42 29 69l184 338h75l-252 -464v-216h-74z" />
    <glyph glyph-name="Ydieresis" unicode="&#x178;" horiz-adv-x="656" 
d="M414 771c-24 0 -47 21 -47 46c0 26 23 46 47 46s46 -20 46 -46c0 -25 -22 -46 -46 -46zM240 771c-24 0 -46 21 -46 46c0 26 22 46 46 46c25 0 47 -20 47 -46c0 -25 -22 -46 -47 -46zM294 0v213l-257 467h81l185 -338c15 -26 29 -69 29 -69s15 42 29 69l184 338h75
l-252 -464v-216h-74z" />
    <glyph glyph-name="Zcaron" unicode="&#x17d;" horiz-adv-x="581" 
d="M302 743l-128 193h61l71 -99l72 99h61l-128 -193h-9zM39 0v11l380 605h-326v64h438v-11l-379 -605h381v-64h-494z" />
    <glyph glyph-name="aacute" unicode="&#xe1;" horiz-adv-x="471" 
d="M203 498l68 193h80l-93 -193h-55zM331 243v10c0 80 -36 111 -97 111c-58 0 -95 -25 -121 -60l-43 39c36 49 90 80 169 80c92 0 162 -54 162 -169v-254h-70l3 62c-28 -42 -71 -70 -137 -70c-88 0 -152 40 -152 126c0 85 70 125 157 125h129zM331 190h-124
c-53 0 -94 -19 -94 -69c0 -47 35 -72 100 -72c64 0 118 35 118 89v52z" />
    <glyph glyph-name="acircumflex" unicode="&#xe2;" horiz-adv-x="471" 
d="M104 496l128 193h9l128 -193h-61l-71 99l-72 -99h-61zM331 243v10c0 80 -36 111 -97 111c-58 0 -95 -25 -121 -60l-43 39c36 49 90 80 169 80c92 0 162 -54 162 -169v-254h-70l3 62c-28 -42 -71 -70 -137 -70c-88 0 -152 40 -152 126c0 85 70 125 157 125h129zM331 190
h-124c-53 0 -94 -19 -94 -69c0 -47 35 -72 100 -72c64 0 118 35 118 89v52z" />
    <glyph glyph-name="adieresis" unicode="&#xe4;" horiz-adv-x="471" 
d="M324 516c-24 0 -47 21 -47 46c0 26 23 46 47 46s46 -20 46 -46c0 -25 -22 -46 -46 -46zM150 516c-24 0 -46 21 -46 46c0 26 22 46 46 46c25 0 47 -20 47 -46c0 -25 -22 -46 -47 -46zM331 243v10c0 80 -36 111 -97 111c-58 0 -95 -25 -121 -60l-43 39c36 49 90 80 169 80
c92 0 162 -54 162 -169v-254h-70l3 62c-28 -42 -71 -70 -137 -70c-88 0 -152 40 -152 126c0 85 70 125 157 125h129zM331 190h-124c-53 0 -94 -19 -94 -69c0 -47 35 -72 100 -72c64 0 118 35 118 89v52z" />
    <glyph glyph-name="agrave" unicode="&#xe0;" horiz-adv-x="471" 
d="M213 498l-93 193h80l68 -193h-55zM331 243v10c0 80 -36 111 -97 111c-58 0 -95 -25 -121 -60l-43 39c36 49 90 80 169 80c92 0 162 -54 162 -169v-254h-70l3 62c-28 -42 -71 -70 -137 -70c-88 0 -152 40 -152 126c0 85 70 125 157 125h129zM331 190h-124
c-53 0 -94 -19 -94 -69c0 -47 35 -72 100 -72c64 0 118 35 118 89v52z" />
    <glyph glyph-name="aring" unicode="&#xe5;" horiz-adv-x="471" 
d="M235 484c-59 0 -105 45 -105 100c0 56 46 101 105 101s105 -45 105 -101c0 -55 -46 -100 -105 -100zM331 243v10c0 80 -36 111 -97 111c-58 0 -95 -25 -121 -60l-43 39c36 49 90 80 169 80c92 0 162 -54 162 -169v-254h-70l3 62c-28 -42 -71 -70 -137 -70
c-88 0 -152 40 -152 126c0 85 70 125 157 125h129zM235 529c31 0 52 22 52 55c0 34 -21 55 -52 55s-52 -21 -52 -55c0 -33 21 -55 52 -55zM331 190h-124c-53 0 -94 -19 -94 -69c0 -47 35 -72 100 -72c64 0 118 35 118 89v52z" />
    <glyph glyph-name="atilde" unicode="&#xe3;" horiz-adv-x="471" 
d="M137 493l-52 4c4 72 38 111 87 111c28 0 47 -13 69 -32c25 -22 32 -28 48 -28c21 0 32 18 36 58l52 -5c-4 -71 -36 -110 -86 -110c-28 0 -47 14 -69 33c-25 22 -32 28 -48 28c-20 0 -33 -19 -37 -59zM331 243v10c0 80 -36 111 -97 111c-58 0 -95 -25 -121 -60l-43 39
c36 49 90 80 169 80c92 0 162 -54 162 -169v-254h-70l3 62c-28 -42 -71 -70 -137 -70c-88 0 -152 40 -152 126c0 85 70 125 157 125h129zM331 190h-124c-53 0 -94 -19 -94 -69c0 -47 35 -72 100 -72c64 0 118 35 118 89v52z" />
    <glyph glyph-name="ccedilla" unicode="&#xe7;" horiz-adv-x="467" 
d="M217 -3c-99 20 -169 105 -169 210c0 121 93 216 215 216c74 0 125 -28 163 -74l-50 -41c-25 33 -61 53 -113 53c-88 0 -143 -66 -143 -154s55 -154 143 -154c57 0 93 23 119 54l48 -41c-39 -47 -89 -74 -165 -74v-45c42 -6 82 -38 82 -91c0 -56 -47 -88 -96 -88
c-52 0 -85 27 -101 59l43 25c12 -20 23 -37 54 -37c24 0 45 15 45 45c0 26 -17 47 -53 47h-22v90z" />
    <glyph glyph-name="eacute" unicode="&#xe9;" horiz-adv-x="516" 
d="M229 498l68 193h80l-93 -193h-55zM118 184c9 -79 63 -133 154 -133c62 0 104 25 131 55l43 -42c-38 -43 -93 -72 -174 -72c-136 0 -224 94 -224 215s93 216 214 216c133 0 213 -102 208 -239h-352zM119 237h281c-6 71 -51 127 -138 127c-79 0 -132 -51 -143 -127z" />
    <glyph glyph-name="ecircumflex" unicode="&#xea;" horiz-adv-x="516" 
d="M125 496l128 193h9l128 -193h-61l-71 99l-72 -99h-61zM118 184c9 -79 63 -133 154 -133c62 0 104 25 131 55l43 -42c-38 -43 -93 -72 -174 -72c-136 0 -224 94 -224 215s93 216 214 216c133 0 213 -102 208 -239h-352zM119 237h281c-6 71 -51 127 -138 127
c-79 0 -132 -51 -143 -127z" />
    <glyph glyph-name="edieresis" unicode="&#xeb;" horiz-adv-x="516" 
d="M345 516c-24 0 -47 21 -47 46c0 26 23 46 47 46s46 -20 46 -46c0 -25 -22 -46 -46 -46zM171 516c-24 0 -46 21 -46 46c0 26 22 46 46 46c25 0 47 -20 47 -46c0 -25 -22 -46 -47 -46zM118 184c9 -79 63 -133 154 -133c62 0 104 25 131 55l43 -42c-38 -43 -93 -72 -174 -72
c-136 0 -224 94 -224 215s93 216 214 216c133 0 213 -102 208 -239h-352zM119 237h281c-6 71 -51 127 -138 127c-79 0 -132 -51 -143 -127z" />
    <glyph glyph-name="egrave" unicode="&#xe8;" horiz-adv-x="516" 
d="M235 498l-93 193h80l68 -193h-55zM118 184c9 -79 63 -133 154 -133c62 0 104 25 131 55l43 -42c-38 -43 -93 -72 -174 -72c-136 0 -224 94 -224 215s93 216 214 216c133 0 213 -102 208 -239h-352zM119 237h281c-6 71 -51 127 -138 127c-79 0 -132 -51 -143 -127z" />
    <glyph glyph-name="iacute" unicode="&#xed;" horiz-adv-x="222" 
d="M81 498l68 193h80l-93 -193h-55zM76 0v414h70v-414h-70z" />
    <glyph glyph-name="icircumflex" unicode="&#xee;" horiz-adv-x="222" 
d="M-22 496l128 193h9l128 -193h-61l-71 99l-72 -99h-61zM76 0v414h70v-414h-70z" />
    <glyph glyph-name="idieresis" unicode="&#xef;" horiz-adv-x="222" 
d="M198 516c-24 0 -47 21 -47 46c0 26 23 46 47 46s46 -20 46 -46c0 -25 -22 -46 -46 -46zM24 516c-24 0 -46 21 -46 46c0 26 22 46 46 46c25 0 47 -20 47 -46c0 -25 -22 -46 -47 -46zM76 0v414h70v-414h-70z" />
    <glyph glyph-name="igrave" unicode="&#xec;" horiz-adv-x="222" 
d="M83 498l-93 193h80l68 -193h-55zM76 0v414h70v-414h-70z" />
    <glyph glyph-name="ntilde" unicode="&#xf1;" horiz-adv-x="516" 
d="M161 493l-52 4c4 72 38 111 87 111c28 0 47 -13 69 -32c25 -22 32 -28 48 -28c21 0 32 18 36 58l52 -5c-4 -71 -36 -110 -86 -110c-28 0 -47 14 -69 33c-25 22 -32 28 -48 28c-20 0 -33 -19 -37 -59zM74 0v414h70l-2 -85c27 59 82 94 149 94c92 0 155 -63 155 -171v-252
h-70v244c0 73 -34 115 -103 115c-77 0 -129 -49 -129 -131v-228h-70z" />
    <glyph glyph-name="oacute" unicode="&#xf3;" horiz-adv-x="534" 
d="M239 498l68 193h80l-93 -193h-55zM268 -8c-124 0 -220 94 -220 215s96 216 220 216c123 0 218 -95 218 -216s-95 -215 -218 -215zM268 52c88 0 147 66 147 155s-59 155 -147 155c-89 0 -149 -66 -149 -155s60 -155 149 -155z" />
    <glyph glyph-name="ocircumflex" unicode="&#xf4;" horiz-adv-x="534" 
d="M134 496l128 193h9l128 -193h-61l-71 99l-72 -99h-61zM268 -8c-124 0 -220 94 -220 215s96 216 220 216c123 0 218 -95 218 -216s-95 -215 -218 -215zM268 52c88 0 147 66 147 155s-59 155 -147 155c-89 0 -149 -66 -149 -155s60 -155 149 -155z" />
    <glyph glyph-name="odieresis" unicode="&#xf6;" horiz-adv-x="534" 
d="M354 516c-24 0 -47 21 -47 46c0 26 23 46 47 46s46 -20 46 -46c0 -25 -22 -46 -46 -46zM180 516c-24 0 -46 21 -46 46c0 26 22 46 46 46c25 0 47 -20 47 -46c0 -25 -22 -46 -47 -46zM268 -8c-124 0 -220 94 -220 215s96 216 220 216c123 0 218 -95 218 -216
s-95 -215 -218 -215zM268 52c88 0 147 66 147 155s-59 155 -147 155c-89 0 -149 -66 -149 -155s60 -155 149 -155z" />
    <glyph glyph-name="ograve" unicode="&#xf2;" horiz-adv-x="534" 
d="M240 498l-93 193h80l68 -193h-55zM268 -8c-124 0 -220 94 -220 215s96 216 220 216c123 0 218 -95 218 -216s-95 -215 -218 -215zM268 52c88 0 147 66 147 155s-59 155 -147 155c-89 0 -149 -66 -149 -155s60 -155 149 -155z" />
    <glyph glyph-name="otilde" unicode="&#xf5;" horiz-adv-x="534" 
d="M173 493l-52 4c4 72 38 111 87 111c28 0 47 -13 69 -32c25 -22 32 -28 48 -28c21 0 32 18 36 58l52 -5c-4 -71 -36 -110 -86 -110c-28 0 -47 14 -69 33c-25 22 -32 28 -48 28c-20 0 -33 -19 -37 -59zM268 -8c-124 0 -220 94 -220 215s96 216 220 216
c123 0 218 -95 218 -216s-95 -215 -218 -215zM268 52c88 0 147 66 147 155s-59 155 -147 155c-89 0 -149 -66 -149 -155s60 -155 149 -155z" />
    <glyph glyph-name="scaron" unicode="&#x161;" horiz-adv-x="410" 
d="M193 488l-128 193h61l71 -99l72 99h61l-128 -193h-9zM213 -8c-91 0 -150 44 -177 96l54 31c24 -40 60 -70 120 -70c56 0 88 24 88 62c0 45 -36 55 -108 76c-65 19 -125 45 -125 123c0 72 60 113 136 113c63 0 109 -26 138 -67l-48 -37c-21 29 -50 47 -90 47
c-45 0 -72 -21 -72 -53c0 -39 25 -50 98 -71c70 -19 137 -47 137 -127c0 -70 -47 -123 -151 -123z" />
    <glyph glyph-name="uacute" unicode="&#xfa;" horiz-adv-x="515" 
d="M228 498l68 193h80l-93 -193h-55zM225 -9c-92 0 -155 63 -155 169v254h70v-247c0 -72 34 -112 102 -112c78 0 129 50 129 131v228h70v-414h-70l2 84c-27 -58 -81 -93 -148 -93z" />
    <glyph glyph-name="ucircumflex" unicode="&#xfb;" horiz-adv-x="515" 
d="M124 496l128 193h9l128 -193h-61l-71 99l-72 -99h-61zM225 -9c-92 0 -155 63 -155 169v254h70v-247c0 -72 34 -112 102 -112c78 0 129 50 129 131v228h70v-414h-70l2 84c-27 -58 -81 -93 -148 -93z" />
    <glyph glyph-name="udieresis" unicode="&#xfc;" horiz-adv-x="515" 
d="M344 516c-24 0 -47 21 -47 46c0 26 23 46 47 46s46 -20 46 -46c0 -25 -22 -46 -46 -46zM170 516c-24 0 -46 21 -46 46c0 26 22 46 46 46c25 0 47 -20 47 -46c0 -25 -22 -46 -47 -46zM225 -9c-92 0 -155 63 -155 169v254h70v-247c0 -72 34 -112 102 -112
c78 0 129 50 129 131v228h70v-414h-70l2 84c-27 -58 -81 -93 -148 -93z" />
    <glyph glyph-name="ugrave" unicode="&#xf9;" horiz-adv-x="515" 
d="M231 498l-93 193h80l68 -193h-55zM225 -9c-92 0 -155 63 -155 169v254h70v-247c0 -72 34 -112 102 -112c78 0 129 50 129 131v228h70v-414h-70l2 84c-27 -58 -81 -93 -148 -93z" />
    <glyph glyph-name="yacute" unicode="&#xfd;" horiz-adv-x="462" 
d="M205 498l68 193h80l-93 -193h-55zM95 -212l106 247l-176 379h77l117 -257c11 -26 19 -70 19 -70s7 44 19 70l108 257h72l-270 -626h-72z" />
    <glyph glyph-name="ydieresis" unicode="&#xff;" horiz-adv-x="462" 
d="M317 516c-24 0 -47 21 -47 46c0 26 23 46 47 46s46 -20 46 -46c0 -25 -22 -46 -46 -46zM143 516c-24 0 -46 21 -46 46c0 26 22 46 46 46c25 0 47 -20 47 -46c0 -25 -22 -46 -47 -46zM95 -212l106 247l-176 379h77l117 -257c11 -26 19 -70 19 -70s7 44 19 70l108 257h72
l-270 -626h-72z" />
    <glyph glyph-name="zcaron" unicode="&#x17e;" horiz-adv-x="417" 
d="M220 488l-128 193h61l71 -99l72 99h61l-128 -193h-9zM32 0v10l239 346h-213v58h326v-11l-241 -345h236v-58h-347z" />
    <glyph glyph-name=".null" horiz-adv-x="0" 
 />
    <glyph glyph-name="CR" unicode="&#xd;" horiz-adv-x="237" 
 />
    <glyph glyph-name="lessequal" unicode="&#x2264;" 
d="M101 189c-28 0 -54 24 -54 55s26 54 54 54c29 0 54 -23 54 -54s-25 -55 -54 -55z" />
    <glyph glyph-name="greaterequal" unicode="&#x2265;" 
d="M101 189c-28 0 -54 24 -54 55s26 54 54 54c29 0 54 -23 54 -54s-25 -55 -54 -55z" />
    <glyph glyph-name="partialdiff" unicode="&#x2202;" 
d="M101 189c-28 0 -54 24 -54 55s26 54 54 54c29 0 54 -23 54 -54s-25 -55 -54 -55z" />
    <glyph glyph-name="summation" unicode="&#x2211;" horiz-adv-x="806" 
d="M440 1c43 -35 82 -66 145 -66c50 0 81 24 100 45l49 -44c-29 -34 -74 -66 -148 -66c-84 0 -144 48 -194 87c-44 33 -90 66 -147 66c-56 0 -95 -33 -121 -73l-49 40c24 37 60 67 107 81c-79 59 -129 154 -129 269c0 205 156 348 349 348c194 0 350 -143 350 -348
c0 -191 -137 -323 -312 -339zM402 59c159 0 275 120 275 281c0 162 -116 283 -275 283c-158 0 -274 -121 -274 -283c0 -161 116 -281 274 -281z" />
    <glyph glyph-name="product" unicode="&#x220f;" 
d="M101 189c-28 0 -54 24 -54 55s26 54 54 54c29 0 54 -23 54 -54s-25 -55 -54 -55z" />
    <glyph glyph-name="pi" unicode="&#x3c0;" 
d="M101 189c-28 0 -54 24 -54 55s26 54 54 54c29 0 54 -23 54 -54s-25 -55 -54 -55z" />
    <glyph glyph-name="integral" unicode="&#x222b;" 
d="M101 189c-28 0 -54 24 -54 55s26 54 54 54c29 0 54 -23 54 -54s-25 -55 -54 -55z" />
    <glyph glyph-name="Omega" unicode="&#x3a9;" 
d="M101 189c-28 0 -54 24 -54 55s26 54 54 54c29 0 54 -23 54 -54s-25 -55 -54 -55z" />
    <glyph glyph-name="Omega" unicode="&#x2126;" 
d="M101 189c-28 0 -54 24 -54 55s26 54 54 54c29 0 54 -23 54 -54s-25 -55 -54 -55z" />
    <glyph glyph-name="radical" unicode="&#x221a;" 
d="M101 189c-28 0 -54 24 -54 55s26 54 54 54c29 0 54 -23 54 -54s-25 -55 -54 -55z" />
    <glyph glyph-name="approxequal" unicode="&#x2248;" 
d="M101 189c-28 0 -54 24 -54 55s26 54 54 54c29 0 54 -23 54 -54s-25 -55 -54 -55z" />
    <glyph glyph-name="Delta" unicode="&#x394;" 
d="M101 189c-28 0 -54 24 -54 55s26 54 54 54c29 0 54 -23 54 -54s-25 -55 -54 -55z" />
    <glyph glyph-name="Delta" unicode="&#x2206;" 
d="M101 189c-28 0 -54 24 -54 55s26 54 54 54c29 0 54 -23 54 -54s-25 -55 -54 -55z" />
    <glyph glyph-name="nbspace" unicode="&#xa0;" horiz-adv-x="182" 
 />
    <glyph glyph-name="lozenge" unicode="&#x25ca;" 
d="M101 189c-28 0 -54 24 -54 55s26 54 54 54c29 0 54 -23 54 -54s-25 -55 -54 -55z" />
    <glyph glyph-name="apple" horiz-adv-x="202" 
d="M101 189c-28 0 -54 24 -54 55s26 54 54 54c29 0 54 -23 54 -54s-25 -55 -54 -55z" />
    <glyph glyph-name="Euro" unicode="&#x20ac;" horiz-adv-x="621" 
d="M113 283h-73v56h85c34 104 130 173 244 173c89 0 153 -33 199 -94l-52 -40c-35 47 -77 73 -147 73c-80 0 -143 -43 -171 -112h217v-56h-231c-1 -10 -2 -20 -2 -31s1 -22 2 -32h231v-56h-216c28 -69 92 -111 170 -111c76 0 119 29 154 76l51 -36
c-41 -63 -110 -101 -205 -101c-113 0 -209 69 -244 172h-85v56h73c-1 10 -2 21 -2 32s1 21 2 31z" />
    <glyph glyph-name="infinity" horiz-adv-x="759" 
d="M648 534c-26 0 -50 20 -50 49s24 50 50 50s50 -21 50 -50s-24 -49 -50 -49zM101 0v355h-67v59h67v168c0 93 47 133 114 133c49 0 81 -17 102 -44l-45 -44c-12 15 -26 25 -50 25c-30 0 -51 -16 -51 -70v-168h186v188c0 93 47 133 116 133c50 0 81 -21 100 -45l-44 -42
c-14 15 -27 24 -51 24c-30 0 -51 -16 -51 -70v-188h256v-414h-70v355h-186v-355h-70v355h-186v-355h-70z" />
    <glyph glyph-name="notequal" horiz-adv-x="572" 
d="M101 0v355h-67v59h67v168c0 93 47 133 114 133c49 0 81 -17 102 -44l-45 -44c-12 15 -26 25 -50 25c-30 0 -51 -16 -51 -70v-168h186v188c0 93 47 133 115 133c51 0 84 -20 105 -51l-46 -41c-13 17 -25 29 -53 29c-30 0 -51 -17 -51 -70v-188h111v-59h-111v-355h-70v355
h-186v-355h-70z" />
    </font>
</defs>
</svg>
