<?xml version="1.0" standalone="no"?>
<!DOCTYPE svg PUBLIC "-//W3C//DTD SVG 1.1//EN" "http://www.w3.org/Graphics/SVG/1.1/DTD/svg11.dtd" >
<svg xmlns="http://www.w3.org/2000/svg" xmlns:xlink="http://www.w3.org/1999/xlink" version="1.1">
<metadata>
Created by FontForge 20190801 at Mon Dec 16 13:09:39 2002
 By www-data
(C)2002 House Industries/Brand Design Co. Inc.
</metadata>
<defs>
<font id="NeutraText-BookItalic" horiz-adv-x="201" >
  <font-face 
    font-family="Neutra Text"
    font-weight="500"
    font-style="italic"
    font-stretch="normal"
    units-per-em="1000"
    panose-1="2 0 0 0 0 0 0 0 0 0"
    ascent="800"
    descent="-200"
    x-height="414"
    cap-height="680"
    bbox="-116 -232 1085 946"
    underline-thickness="20"
    underline-position="-143"
    slope="-12"
    stemh="55"
    stemv="70"
    unicode-range="U+000D-FB02"
  />
<missing-glyph horiz-adv-x="500" 
 />
    <glyph glyph-name="fi" unicode="fi" horiz-adv-x="502" 
d="M447 536c-25 0 -48 19 -48 47s23 47 48 47c24 0 47 -19 47 -47s-23 -47 -47 -47zM195 356l-79 -454c-17 -95 -56 -114 -122 -114h-42l10 55h30c26 0 47 10 57 66l78 447h-65l10 58h66l34 195c15 88 60 126 125 126c49 0 79 -20 99 -49l-47 -40c-13 17 -24 28 -50 28
c-29 0 -50 -15 -60 -69l-33 -191h245l-58 -327c-4 -21 0 -32 19 -32h41l-9 -55h-49c-60 0 -80 29 -69 92l47 264h-178z" />
    <glyph glyph-name="fl" unicode="fl" horiz-adv-x="497" 
d="M128 356h-66l10 58h66l29 167c18 104 80 154 171 154c96 0 157 -65 137 -177l-83 -471c-3 -21 1 -32 20 -32h45l-9 -55h-54c-60 0 -80 29 -68 92l82 470c14 74 -16 114 -73 114c-59 0 -89 -34 -101 -104l-28 -158h102l-10 -58h-102l-80 -454c-17 -95 -56 -114 -122 -114
h-42l10 55h30c26 0 47 10 57 66z" />
    <glyph glyph-name="ff" unicode="ff" horiz-adv-x="555" 
d="M372 356h-176l-80 -454c-17 -95 -56 -114 -122 -114h-42l10 55h30c26 0 47 10 57 66l79 447h-66l10 58h66l31 176c15 88 59 125 125 125c46 0 74 -19 92 -44l-44 -42c-13 17 -23 25 -46 25c-30 0 -50 -14 -60 -68l-30 -172h176l35 193c16 90 60 128 127 128
c51 0 80 -22 100 -50l-47 -40c-12 16 -24 29 -51 29c-31 0 -52 -15 -62 -71l-33 -189h107l-10 -58h-108l-76 -432c-16 -95 -56 -114 -122 -114h-39l10 55h28c25 0 46 10 56 65z" />
    <glyph glyph-name="ffi" unicode="ffi" horiz-adv-x="747" 
d="M692 536c-25 0 -47 19 -47 47s22 47 47 47c24 0 47 -19 47 -47s-22 -47 -47 -47zM440 356l-75 -432c-16 -95 -56 -114 -122 -114h-39l10 55h28c25 0 46 10 56 65l74 426h-176l-80 -454c-17 -95 -56 -114 -122 -114h-42l10 55h30c26 0 47 10 57 66l79 447h-66l10 58h66
l31 176c15 88 59 125 125 125c46 0 74 -19 92 -44l-44 -42c-13 17 -23 25 -46 25c-30 0 -50 -14 -60 -68l-30 -172h177l34 195c15 88 60 126 125 126c49 0 79 -20 99 -49l-47 -40c-13 17 -24 28 -50 28c-29 0 -50 -15 -60 -69l-33 -191h245l-58 -327c-3 -21 0 -32 20 -32h40
l-9 -55h-49c-60 0 -80 29 -69 92l47 264h-178z" />
    <glyph glyph-name="ffl" unicode="ffl" horiz-adv-x="742" 
d="M372 356h-176l-80 -454c-17 -95 -56 -114 -122 -114h-42l10 55h30c26 0 47 10 57 66l79 447h-66l10 58h66l31 176c15 88 59 125 125 125c46 0 74 -19 92 -44l-44 -42c-13 17 -23 25 -46 25c-30 0 -50 -14 -60 -68l-30 -172h176l30 167c19 104 80 154 171 154
c97 0 157 -65 137 -177l-82 -471c-4 -21 0 -32 19 -32h45l-9 -55h-53c-61 0 -80 29 -69 92l82 470c14 74 -16 114 -73 114c-59 0 -89 -34 -101 -104l-28 -158h102l-10 -58h-102l-77 -432c-16 -95 -56 -114 -122 -114h-39l10 55h28c25 0 46 10 56 65z" />
    <glyph glyph-name=".notdef" horiz-adv-x="500" 
 />
    <glyph glyph-name=".notdef" horiz-adv-x="500" 
 />
    <glyph glyph-name="space" unicode=" " horiz-adv-x="232" 
 />
    <glyph glyph-name="exclam" unicode="!" horiz-adv-x="236" 
d="M88 190l77 490h77l-101 -490h-53zM90 -7c-27 0 -52 23 -52 53s25 53 52 53s52 -23 52 -53s-25 -53 -52 -53z" />
    <glyph glyph-name="quotedbl" unicode="&#x22;" horiz-adv-x="281" 
d="M223 470l29 210h73l-46 -210h-56zM95 470l29 210h73l-47 -210h-55z" />
    <glyph glyph-name="numbersign" unicode="#" horiz-adv-x="429" 
d="M155 449h-79l10 55h83l27 109h57l-27 -109h98l27 109h58l-27 -109h68l-10 -55h-72l-28 -110h81l-10 -55h-84l-27 -107h-58l27 107h-98l-27 -107h-57l27 107h-68l10 55h71zM310 449h-98l-28 -110h98z" />
    <glyph glyph-name="dollar" unicode="$" horiz-adv-x="427" 
d="M148 -4c-80 14 -130 63 -151 110l57 28c18 -38 51 -72 103 -84l33 190c-81 31 -119 75 -119 140c0 86 72 132 164 132h3l18 101h50l-19 -107c53 -13 90 -47 110 -85l-51 -32c-14 30 -35 53 -68 63l-30 -168l6 -2c88 -34 130 -77 130 -147c0 -94 -79 -142 -187 -143
l-19 -108h-50zM228 458c-54 -2 -92 -24 -92 -75c0 -37 21 -61 65 -79zM206 46c70 3 111 34 111 88c0 39 -23 64 -80 86z" />
    <glyph glyph-name="percent" unicode="%" horiz-adv-x="778" 
d="M194 218c-79 0 -142 58 -142 140c0 90 74 154 154 154c79 0 142 -57 142 -138c0 -93 -73 -156 -154 -156zM163 0l401 504h70l-401 -504h-70zM589 -8c-79 0 -142 58 -142 140c0 90 74 153 154 153c79 0 142 -57 142 -138c0 -93 -73 -155 -154 -155zM194 271
c52 0 93 40 93 102c0 54 -33 85 -81 85c-52 0 -93 -39 -93 -99c0 -55 34 -88 81 -88zM589 44c52 0 93 41 93 102c0 54 -34 86 -81 86c-52 0 -93 -40 -93 -100c0 -55 34 -88 81 -88z" />
    <glyph glyph-name="ampersand" unicode="&#x26;" horiz-adv-x="652" 
d="M339 388l121 -195c26 48 44 107 55 175h67c-15 -94 -44 -174 -84 -235l20 -32c21 -33 32 -41 60 -41h30l-11 -60h-30c-59 0 -79 20 -113 75l-2 3c-55 -56 -125 -86 -204 -86c-126 0 -209 70 -209 177c0 120 93 183 209 235l-3 5c-32 50 -44 90 -44 135
c0 81 61 144 152 144c82 0 135 -56 135 -131s-60 -126 -149 -169zM311 432c69 33 113 68 113 123c0 46 -29 76 -72 76c-49 0 -83 -35 -83 -86c0 -36 12 -65 29 -93zM418 132l-142 228c-95 -43 -162 -95 -162 -188c0 -73 55 -118 133 -118c70 0 127 27 171 78z" />
    <glyph glyph-name="quoteright" unicode="&#x2019;" horiz-adv-x="194" 
d="M100 482l51 108c-16 7 -29 23 -29 47c0 29 25 50 51 50c29 0 51 -20 51 -50c0 -15 -7 -32 -18 -48l-69 -107h-37z" />
    <glyph glyph-name="parenleft" unicode="(" horiz-adv-x="277" 
d="M147 -135c-55 72 -107 188 -107 338c0 251 135 411 256 515l36 -39c-115 -107 -220 -264 -220 -474c0 -141 36 -235 82 -308z" />
    <glyph glyph-name="parenright" unicode=")" horiz-adv-x="275" 
d="M11 -135l-36 39c115 108 220 264 220 477c0 137 -36 232 -82 306l46 31c56 -72 107 -185 107 -335c0 -255 -134 -414 -255 -518z" />
    <glyph glyph-name="asterisk" unicode="*" horiz-adv-x="398" 
d="M210 374l28 127l-104 -64l-25 56l120 37l-112 57l35 51l92 -81l-5 123h64l-27 -125l103 64l25 -56l-120 -36l112 -58l-35 -50l-91 80l4 -125h-64z" />
    <glyph glyph-name="plus" unicode="+" horiz-adv-x="371" 
d="M219 223l-22 -125h-62l22 125h-115l11 59h114l23 126h62l-23 -126h116l-11 -59h-115z" />
    <glyph glyph-name="comma" unicode="," horiz-adv-x="196" 
d="M-8 -112l55 112c-15 7 -29 24 -29 48c0 30 25 53 53 53c30 0 52 -22 52 -53c0 -15 -7 -30 -18 -46l-75 -114h-38z" />
    <glyph glyph-name="hyphen" unicode="-" horiz-adv-x="277" 
d="M44 201l11 60h188l-10 -60h-189z" />
    <glyph glyph-name="hyphen" unicode="&#xad;" horiz-adv-x="277" 
d="M44 201l11 60h188l-10 -60h-189z" />
    <glyph glyph-name="period" unicode="." horiz-adv-x="196" 
d="M71 -7c-27 0 -53 23 -53 53c0 31 26 54 53 54c28 0 52 -23 52 -54c0 -30 -24 -53 -52 -53z" />
    <glyph glyph-name="slash" unicode="/" horiz-adv-x="416" 
d="M-38 -128l445 850h72l-445 -850h-72z" />
    <glyph glyph-name="zero" unicode="0" horiz-adv-x="608" 
d="M298 -8c-142 0 -248 108 -248 250c0 165 133 270 276 270c139 0 249 -107 249 -249c0 -167 -133 -271 -277 -271zM300 53c115 0 202 84 202 212c0 110 -73 186 -178 186c-115 0 -202 -84 -202 -211c0 -110 73 -187 178 -187z" />
    <glyph glyph-name="one" unicode="1" horiz-adv-x="288" 
d="M92 0l78 446h-108l10 58h178l-89 -504h-69z" />
    <glyph glyph-name="two" unicode="2" horiz-adv-x="448" 
d="M-2 0v9l218 177c84 67 138 116 138 179c0 56 -38 85 -90 85c-62 0 -101 -31 -127 -96l-63 19c33 94 104 139 192 139c92 0 158 -57 158 -142c0 -84 -68 -147 -152 -215l-87 -71c-19 -15 -47 -29 -47 -29s33 4 52 4h206l-11 -59h-387z" />
    <glyph glyph-name="three" unicode="3" horiz-adv-x="489" 
d="M207 -103c-103 0 -177 53 -211 126l60 31c30 -62 79 -96 150 -96c83 0 151 49 151 150c0 84 -52 136 -137 136c-37 0 -64 -9 -85 -19l-7 10l180 179c16 18 42 35 42 35s-35 -3 -57 -3h-192l10 58h360v-7l-172 -172c-16 -16 -40 -32 -40 -32c95 -7 170 -76 170 -189
c0 -122 -91 -207 -222 -207z" />
    <glyph glyph-name="four" unicode="4" horiz-adv-x="518" 
d="M391 76h75l-10 -55h-75l-20 -115h-69l20 115h-319l6 34l460 459h10zM322 76l41 228c4 25 16 60 16 60s-22 -27 -40 -45l-203 -207c-18 -18 -44 -38 -44 -38s30 2 52 2h178z" />
    <glyph glyph-name="five" unicode="5" horiz-adv-x="478" 
d="M197 -103c-100 0 -165 53 -193 113l60 29c22 -44 62 -81 132 -81c93 0 153 62 153 153c0 80 -47 134 -137 134c-62 0 -104 -23 -138 -48l-6 4l52 303h317l-10 -58h-256l-27 -160c22 11 51 17 87 17c115 0 192 -82 192 -192c0 -126 -95 -214 -226 -214z" />
    <glyph glyph-name="six" unicode="6" horiz-adv-x="506" 
d="M243 -8c-122 0 -202 85 -202 196c0 68 34 122 79 172l221 251h80l-177 -200c-17 -19 -64 -52 -64 -52c34 21 63 33 99 33c108 0 186 -80 186 -190c0 -123 -96 -210 -222 -210zM243 53c90 0 150 63 150 150c0 78 -47 133 -131 133c-95 0 -150 -68 -150 -150
c0 -76 50 -133 131 -133z" />
    <glyph glyph-name="seven" unicode="7" horiz-adv-x="441" 
d="M15 -94l342 540h-287l10 58h382v-9l-372 -589h-75z" />
    <glyph glyph-name="eight" unicode="8" horiz-adv-x="517" 
d="M206 352c-39 22 -68 59 -67 111c0 86 73 155 173 155c94 0 165 -63 165 -143c0 -74 -52 -120 -114 -138c64 -26 108 -79 108 -153c0 -117 -93 -192 -223 -192c-125 0 -211 80 -211 182c0 101 71 162 169 178zM303 371c64 0 105 41 105 101c0 52 -38 88 -97 88
c-62 0 -105 -41 -105 -99c0 -53 36 -90 97 -90zM248 53c88 0 151 56 151 138c0 77 -55 124 -139 124c-90 0 -150 -56 -150 -138c0 -71 53 -124 138 -124z" />
    <glyph glyph-name="nine" unicode="9" horiz-adv-x="505" 
d="M91 -94l169 176c26 27 67 56 67 56c-28 -19 -62 -29 -93 -29c-108 0 -187 81 -187 190c0 124 96 213 220 213c123 0 202 -87 202 -197c0 -71 -43 -141 -90 -192l-205 -217h-83zM248 165c97 0 151 69 151 152c0 77 -50 134 -132 134c-89 0 -149 -64 -149 -152
c0 -79 47 -134 130 -134z" />
    <glyph glyph-name="colon" unicode=":" horiz-adv-x="205" 
d="M114 218c-27 0 -52 22 -52 53s25 54 52 54c29 0 53 -23 53 -54s-24 -53 -53 -53zM75 -7c-27 0 -52 23 -52 53c0 31 25 54 52 54c29 0 53 -23 53 -54c0 -30 -24 -53 -53 -53z" />
    <glyph glyph-name="semicolon" unicode=";" horiz-adv-x="205" 
d="M114 218c-27 0 -52 22 -52 53s25 54 52 54c29 0 53 -23 53 -54s-24 -53 -53 -53zM-3 -112l55 112c-16 7 -29 24 -29 48c0 30 24 53 52 53c30 0 53 -22 53 -53c0 -15 -7 -30 -18 -46l-75 -114h-38z" />
    <glyph glyph-name="semicolon" unicode="&#x37e;" horiz-adv-x="205" 
d="M114 218c-27 0 -52 22 -52 53s25 54 52 54c29 0 53 -23 53 -54s-24 -53 -53 -53zM-3 -112l55 112c-16 7 -29 24 -29 48c0 30 24 53 52 53c30 0 53 -22 53 -53c0 -15 -7 -30 -18 -46l-75 -114h-38z" />
    <glyph glyph-name="less" unicode="&#x3c;" horiz-adv-x="354" 
d="M281 94l-242 144v11l294 143l-12 -67l-183 -84l153 -86z" />
    <glyph glyph-name="equal" unicode="=" horiz-adv-x="369" 
d="M55 282l11 61h285l-11 -61h-285zM33 152l10 62h285l-11 -62h-284z" />
    <glyph glyph-name="greater" unicode="&#x3e;" horiz-adv-x="354" 
d="M25 94l12 67l184 84l-154 86l10 61l242 -144v-11z" />
    <glyph glyph-name="question" unicode="?" horiz-adv-x="468" 
d="M178 187l31 176h44c99 0 150 64 150 143c0 75 -48 121 -120 121c-64 0 -106 -29 -139 -89l-54 30c36 76 107 120 194 120c114 0 189 -75 189 -182c0 -114 -85 -197 -209 -197l-21 -122h-65zM186 -7c-27 0 -51 23 -51 53s24 53 51 53c28 0 53 -23 53 -53s-25 -53 -53 -53z
" />
    <glyph glyph-name="at" unicode="@" horiz-adv-x="872" 
d="M421 -206c-226 0 -378 158 -378 375c0 244 186 417 412 417c224 0 372 -151 372 -358c0 -163 -81 -233 -170 -233c-66 0 -104 34 -115 84c-30 -54 -80 -87 -138 -87c-100 0 -167 77 -167 179c0 121 82 206 183 206c69 0 118 -42 136 -101l14 91h67l-41 -227
c-11 -61 13 -93 62 -93c57 0 108 57 108 183c0 175 -119 302 -310 302c-200 0 -348 -155 -348 -362c0 -185 119 -322 313 -322c66 0 121 15 168 37l22 -49c-52 -28 -115 -42 -190 -42zM418 48c70 0 125 68 125 146c0 69 -47 126 -111 126c-73 0 -125 -58 -125 -149
c0 -75 45 -123 111 -123z" />
    <glyph glyph-name="A" unicode="A" horiz-adv-x="642" 
d="M137 115l-65 -115h-72l398 687h11l161 -687h-71l-26 115h-336zM460 174l-68 301c-8 34 -12 78 -12 78s-17 -43 -37 -78l-172 -301h289z" />
    <glyph glyph-name="B" unicode="B" horiz-adv-x="595" 
d="M51 0l119 680h213c110 0 166 -68 166 -151c0 -81 -40 -135 -113 -158c66 -17 113 -74 112 -154c0 -124 -82 -217 -233 -217h-264zM193 402h160c86 0 125 50 125 124c0 50 -33 91 -103 91h-144zM133 63h175c114 0 167 62 167 156c1 71 -36 122 -124 122h-169z" />
    <glyph glyph-name="C" unicode="C" horiz-adv-x="712" 
d="M392 -8c-185 0 -321 139 -321 328c0 213 163 368 363 368c120 0 207 -48 261 -133l-56 -37c-43 64 -109 107 -207 107c-163 0 -288 -132 -288 -303c0 -155 104 -267 251 -267c100 0 169 43 218 99l52 -41c-65 -75 -151 -121 -273 -121z" />
    <glyph glyph-name="D" unicode="D" horiz-adv-x="659" 
d="M54 0l120 680h154c204 0 312 -125 312 -302c0 -226 -152 -378 -395 -378h-191zM136 62h105c219 0 325 135 325 318c0 139 -75 238 -246 238h-86z" />
    <glyph glyph-name="E" unicode="E" horiz-adv-x="566" 
d="M54 0l120 680h405l-10 -62h-336l-56 -321h298l-11 -61h-298l-31 -174h349l-11 -62h-419z" />
    <glyph glyph-name="F" unicode="F" horiz-adv-x="544" 
d="M54 0l120 680h401l-12 -62h-330l-56 -321h300l-11 -63h-300l-41 -234h-71z" />
    <glyph glyph-name="G" unicode="G" horiz-adv-x="735" 
d="M409 -8c-198 0 -335 132 -335 327c0 217 168 369 363 369c108 0 186 -30 244 -97l-52 -46c-45 54 -102 80 -193 80c-164 0 -289 -131 -289 -304c0 -159 104 -267 262 -267c90 0 143 27 178 48l28 159h-198l11 62h264l-45 -259c-46 -33 -121 -72 -238 -72z" />
    <glyph glyph-name="H" unicode="H" horiz-adv-x="677" 
d="M532 297l68 383h71l-120 -680h-71l41 234h-355l-41 -234h-71l120 680h71l-68 -383h355z" />
    <glyph glyph-name="I" unicode="I" horiz-adv-x="259" 
d="M58 0l120 680h71l-120 -680h-71z" />
    <glyph glyph-name="J" unicode="J" horiz-adv-x="455" 
d="M176 -8c-89 0 -145 50 -169 104l61 34c24 -46 55 -74 110 -74c65 0 101 34 114 108l91 516h71l-92 -526c-19 -109 -82 -162 -186 -162z" />
    <glyph glyph-name="K" unicode="K" horiz-adv-x="592" 
d="M168 287c17 25 39 55 60 77l306 316h85l-311 -324l219 -356h-80l-191 311l-93 -92l-38 -219h-71l120 680h71l-54 -304c-5 -30 -16 -65 -23 -89z" />
    <glyph glyph-name="L" unicode="L" horiz-adv-x="515" 
d="M54 0l120 680h71l-109 -617h315l-11 -63h-386z" />
    <glyph glyph-name="M" unicode="M" horiz-adv-x="826" 
d="M54 0l121 688h10l241 -393l385 393h10l-121 -688h-68l79 449c5 32 19 82 19 82s-30 -43 -60 -73l-249 -259h-11l-159 261c-19 29 -40 73 -40 73s-4 -50 -10 -84l-79 -449h-68z" />
    <glyph glyph-name="N" unicode="N" horiz-adv-x="697" 
d="M558 -7l-312 481c-18 28 -37 64 -37 64s-1 -47 -7 -76l-81 -462h-67l121 687h11l313 -483c18 -28 36 -64 36 -64s2 42 7 76l82 464h67l-121 -687h-12z" />
    <glyph glyph-name="O" unicode="O" horiz-adv-x="784" 
d="M395 -8c-183 0 -322 133 -322 326c0 217 162 370 363 370c182 0 323 -133 323 -325c0 -217 -163 -371 -364 -371zM398 55c167 0 288 133 288 309c0 154 -102 260 -251 260c-167 0 -289 -130 -289 -306c0 -153 100 -263 252 -263z" />
    <glyph glyph-name="P" unicode="P" horiz-adv-x="572" 
d="M156 169l-30 -169h-71l120 680h139c163 0 246 -101 245 -231c0 -166 -107 -280 -301 -280h-102zM167 230h91c164 0 228 94 228 219c1 97 -51 170 -178 170h-73z" />
    <glyph glyph-name="Q" unicode="Q" horiz-adv-x="784" 
d="M632 80l79 -102l-53 -40l-80 103c-54 -31 -116 -49 -183 -49c-183 0 -322 133 -322 326c0 217 162 370 363 370c182 0 323 -133 323 -325c0 -116 -50 -216 -127 -283zM541 89l-92 119l53 40l92 -120c58 55 92 137 92 236c0 154 -102 260 -251 260
c-167 0 -289 -130 -289 -306c0 -153 100 -264 252 -264c53 0 102 12 143 35z" />
    <glyph glyph-name="R" unicode="R" horiz-adv-x="577" 
d="M380 200l107 -200h-76l-97 184c-17 -3 -36 -4 -56 -4h-104l-32 -180h-71l120 680h135c162 0 248 -95 247 -227c-1 -116 -55 -216 -173 -253zM165 241h93c159 0 221 87 222 212c1 101 -57 165 -181 165h-68z" />
    <glyph glyph-name="S" unicode="S" horiz-adv-x="528" 
d="M243 -8c-119 0 -195 70 -229 134l61 36c33 -54 80 -108 168 -108c94 0 145 53 145 130c0 55 -31 84 -96 126l-47 30c-78 50 -120 102 -120 180c0 104 77 168 176 168c85 0 138 -39 172 -92l-56 -39c-28 43 -59 69 -119 69c-58 0 -103 -38 -103 -103c0 -52 25 -82 86 -120
l47 -30c86 -55 132 -103 132 -190c0 -115 -84 -191 -217 -191z" />
    <glyph glyph-name="T" unicode="T" horiz-adv-x="543" 
d="M200 0l110 618h-206l11 62h481l-11 -62h-204l-109 -618h-72z" />
    <glyph glyph-name="U" unicode="U" horiz-adv-x="648" 
d="M313 -8c-141 0 -249 92 -220 260l75 428h72l-75 -429c-23 -132 44 -196 151 -196c96 0 158 45 178 161l81 464h72l-84 -473c-27 -155 -118 -215 -250 -215z" />
    <glyph glyph-name="V" unicode="V" horiz-adv-x="641" 
d="M283 -7l-164 687h73l105 -452c9 -36 15 -97 15 -97s24 60 44 95l259 454h75l-394 -687h-13z" />
    <glyph glyph-name="W" unicode="W" horiz-adv-x="932" 
d="M218 -7l-101 687h74l63 -444c4 -30 5 -84 5 -84s20 52 36 81l251 454h12l89 -451c7 -29 13 -83 13 -83s14 51 29 81l220 446h74l-342 -687h-11l-93 468c-6 29 -10 77 -10 77s-18 -47 -34 -75l-263 -470h-12z" />
    <glyph glyph-name="X" unicode="X" horiz-adv-x="613" 
d="M1 0l295 371l-138 309h76l94 -207c10 -23 16 -58 16 -58s15 33 32 56l166 209h79l-246 -310l166 -370h-77l-119 266c-10 22 -16 58 -16 58s-16 -33 -33 -55l-216 -269h-79z" />
    <glyph glyph-name="Y" unicode="Y" horiz-adv-x="641" 
d="M288 215l-170 465h75l123 -336c10 -28 17 -72 17 -72s19 44 38 72l240 336h79l-331 -466l-38 -214h-71z" />
    <glyph glyph-name="Z" unicode="Z" horiz-adv-x="577" 
d="M9 0v11l469 608h-318l11 61h428v-11l-470 -608h372l-11 -61h-481z" />
    <glyph glyph-name="bracketleft" unicode="[" horiz-adv-x="299" 
d="M14 -128l150 850h191l-10 -59h-122l-129 -732h122l-11 -59h-191z" />
    <glyph glyph-name="backslash" unicode="\" horiz-adv-x="408" 
d="M265 -128l-150 850h67l150 -850h-67z" />
    <glyph glyph-name="bracketright" unicode="]" horiz-adv-x="300" 
d="M-24 -128l11 59h122l129 732h-122l10 59h192l-150 -850h-192z" />
    <glyph glyph-name="asciicircum" unicode="^" horiz-adv-x="412" 
d="M112 463l173 225h10l96 -225h-55l-61 129l-104 -129h-59z" />
    <glyph glyph-name="underscore" unicode="_" horiz-adv-x="254" 
d="M-61 -128l11 61h258l-10 -61h-259z" />
    <glyph glyph-name="quoteleft" unicode="&#x2018;" horiz-adv-x="194" 
d="M153 475c-29 0 -50 20 -50 50c0 15 7 32 17 48l69 107h38l-52 -108c17 -7 29 -23 29 -47c0 -29 -25 -50 -51 -50z" />
    <glyph glyph-name="a" unicode="a" horiz-adv-x="528" 
d="M216 -8c-100 0 -171 78 -171 199c0 138 92 232 204 232c73 0 134 -47 154 -122l17 113h68l-57 -327c-3 -21 1 -32 20 -32h38l-10 -55h-45c-61 0 -74 28 -69 72l3 13c-36 -59 -89 -93 -152 -93zM233 51c85 0 151 70 151 169c0 81 -47 143 -123 143
c-88 0 -146 -73 -146 -173c0 -82 46 -139 118 -139z" />
    <glyph glyph-name="b" unicode="b" horiz-adv-x="540" 
d="M290 -8c-78 0 -142 48 -163 124l-16 -116h-68l126 722h68l-68 -387c35 55 89 88 151 88c105 0 176 -81 176 -199c0 -136 -93 -232 -206 -232zM274 51c92 0 152 74 152 173c0 82 -47 139 -123 139c-89 0 -156 -71 -156 -169c0 -82 49 -143 127 -143z" />
    <glyph glyph-name="c" unicode="c" horiz-adv-x="455" 
d="M250 -8c-117 0 -204 87 -204 206c0 127 95 225 224 225c74 0 126 -31 159 -74l-50 -40c-24 33 -60 54 -109 54c-93 0 -154 -71 -154 -166c0 -82 53 -146 134 -146c61 0 92 25 110 41l40 -45c-31 -29 -78 -55 -150 -55z" />
    <glyph glyph-name="d" unicode="d" horiz-adv-x="541" 
d="M220 -8c-105 0 -175 83 -175 199c0 138 94 232 209 232c76 0 137 -49 157 -115l74 414h68l-112 -635c-4 -22 0 -32 19 -32h38l-9 -55h-46c-61 0 -74 29 -69 73l3 13c-34 -59 -93 -94 -157 -94zM238 51c89 0 156 70 156 169c1 81 -49 143 -128 143
c-92 0 -151 -73 -151 -173c0 -82 47 -139 123 -139z" />
    <glyph glyph-name="e" unicode="e" horiz-adv-x="499" 
d="M116 170c11 -72 64 -121 142 -121c60 0 100 22 129 52l43 -42c-40 -41 -97 -67 -172 -67c-127 0 -212 88 -212 206c0 128 94 225 215 225c129 0 193 -92 195 -217zM115 222l269 28c-6 59 -41 117 -124 117c-81 0 -136 -59 -145 -145z" />
    <glyph glyph-name="f" unicode="f" horiz-adv-x="310" 
d="M128 356h-66l10 58h66l34 193c16 90 60 128 127 128c51 0 80 -22 100 -50l-47 -40c-12 16 -24 29 -51 29c-31 0 -52 -15 -62 -71l-33 -189h107l-10 -58h-107l-80 -454c-17 -95 -56 -114 -122 -114h-42l10 55h30c26 0 47 10 57 66z" />
    <glyph glyph-name="g" unicode="g" horiz-adv-x="533" 
d="M202 -223c-96 0 -165 50 -196 109l55 34c32 -55 73 -83 141 -83c82 0 133 46 152 143l20 99c-35 -54 -88 -87 -152 -87c-105 0 -175 83 -175 199c0 138 95 232 210 232c75 0 138 -47 159 -122l16 113h68l-78 -442c-24 -134 -105 -195 -220 -195zM240 51
c89 0 156 70 157 169c0 81 -50 143 -129 143c-91 0 -151 -73 -151 -173c0 -82 47 -139 123 -139z" />
    <glyph glyph-name="h" unicode="h" horiz-adv-x="510" 
d="M42 0l127 722h68l-68 -385c31 50 77 86 144 86c91 0 150 -70 131 -184l-27 -152c-4 -21 0 -32 19 -32h38l-9 -55h-44c-59 0 -81 32 -70 94l24 139c14 79 -15 129 -86 129c-75 0 -123 -45 -138 -129l-41 -233h-68z" />
    <glyph glyph-name="i" unicode="i" horiz-adv-x="233" 
d="M178 535c-25 0 -48 19 -48 48s22 49 48 49c25 0 48 -20 48 -49s-22 -48 -48 -48zM127 0c-61 0 -80 29 -69 92l56 322h68l-57 -327c-4 -21 0 -32 19 -32h41l-10 -55h-48z" />
    <glyph glyph-name="j" unicode="j" horiz-adv-x="225" 
d="M180 535c-25 0 -48 19 -48 48s22 49 48 49c25 0 48 -20 48 -49s-22 -48 -48 -48zM-22 -222c-49 0 -75 19 -94 40l43 40c11 -12 24 -22 46 -22c30 0 44 16 51 57l92 521h68l-91 -521c-14 -78 -54 -115 -115 -115z" />
    <glyph glyph-name="k" unicode="k" horiz-adv-x="462" 
d="M132 130l-22 -130h-68l127 722h68l-82 -463c-4 -22 -10 -44 -15 -61l228 216h81l-185 -176l96 -162c11 -18 22 -21 37 -21h26l-10 -55h-29c-39 0 -61 12 -82 50l-89 149z" />
    <glyph glyph-name="l" unicode="l" horiz-adv-x="235" 
d="M132 0c-60 0 -80 29 -69 92l112 630h68l-113 -635c-4 -21 0 -32 19 -32h46l-10 -55h-53z" />
    <glyph glyph-name="m" unicode="m" horiz-adv-x="742" 
d="M35 0l73 414h68l-16 -75c30 50 70 84 134 84c59 0 98 -35 112 -89c34 61 89 89 149 89c89 0 140 -72 120 -184l-27 -152c-3 -21 1 -32 20 -32h38l-10 -55h-46c-60 0 -80 29 -68 92l24 141c14 79 -7 129 -72 129c-70 0 -109 -45 -124 -129l-41 -233h-68l41 233
c14 78 -7 129 -71 129c-69 0 -112 -45 -127 -129l-41 -233h-68z" />
    <glyph glyph-name="n" unicode="n" horiz-adv-x="501" 
d="M35 0l73 414h68l-17 -83c30 55 80 92 147 92c91 0 151 -70 131 -184l-27 -152c-4 -21 0 -32 20 -32h38l-10 -55h-46c-60 0 -80 29 -69 92l25 141c14 79 -15 129 -86 129c-75 0 -123 -45 -138 -129l-41 -233h-68z" />
    <glyph glyph-name="o" unicode="o" horiz-adv-x="521" 
d="M253 -8c-116 0 -207 91 -207 205c0 129 99 226 224 226c116 0 206 -91 206 -206c0 -129 -98 -225 -223 -225zM254 51c92 0 152 71 152 167c0 83 -54 145 -137 145c-90 0 -153 -71 -153 -167c0 -84 56 -145 138 -145z" />
    <glyph glyph-name="p" unicode="p" horiz-adv-x="534" 
d="M-2 -212l110 626h68l-18 -85c36 59 92 94 156 94c104 0 176 -81 176 -199c0 -136 -94 -232 -207 -232c-79 0 -140 50 -160 117l-57 -321h-68zM268 51c91 0 152 74 152 173c0 82 -48 139 -124 139c-89 0 -156 -71 -156 -169c0 -82 49 -143 128 -143z" />
    <glyph glyph-name="q" unicode="q" horiz-adv-x="534" 
d="M405 -212c-61 0 -80 29 -69 92l36 199c-35 -54 -88 -87 -152 -87c-105 0 -175 83 -175 199c0 138 94 232 209 232c76 0 139 -47 159 -122l17 113h68l-95 -539c-4 -21 0 -32 19 -32h38l-9 -55h-46zM238 51c89 0 156 70 156 169c1 81 -49 143 -128 143
c-92 0 -151 -73 -151 -173c0 -82 47 -139 123 -139z" />
    <glyph glyph-name="r" unicode="r" horiz-adv-x="330" 
d="M35 0l73 414h68l-20 -89c31 62 74 97 129 97c24 0 38 -5 54 -13l-27 -61c-12 7 -25 10 -41 10c-68 0 -114 -51 -130 -142l-38 -216h-68z" />
    <glyph glyph-name="s" unicode="s" horiz-adv-x="403" 
d="M186 -8c-84 0 -142 40 -170 91l52 33c24 -39 59 -68 120 -68c56 0 84 23 84 62c0 35 -29 49 -91 81c-59 29 -102 60 -102 122c0 72 59 110 132 110c62 0 106 -27 133 -63l-47 -38c-20 25 -42 46 -87 46c-39 0 -67 -17 -67 -50s25 -49 78 -75c60 -29 117 -60 117 -131
s-51 -120 -152 -120z" />
    <glyph glyph-name="t" unicode="t" horiz-adv-x="328" 
d="M122 356h-62l10 58h62l39 216h67l-38 -216h112l-10 -58h-112l-41 -231c-9 -52 6 -74 39 -74c25 0 40 10 54 22l32 -46c-21 -19 -48 -35 -94 -35c-66 0 -116 38 -98 136z" />
    <glyph glyph-name="u" unicode="u" horiz-adv-x="503" 
d="M193 -9c-91 0 -150 70 -131 184l42 239h68l-41 -233c-14 -79 15 -129 86 -129c74 0 122 45 137 129l42 233h68l-58 -327c-3 -21 1 -32 20 -32h38l-10 -55h-45c-61 0 -75 36 -69 73l1 7c-34 -56 -81 -89 -148 -89z" />
    <glyph glyph-name="v" unicode="v" horiz-adv-x="451" 
d="M189 -8l-131 422h71l70 -239c9 -28 12 -71 12 -71s15 42 31 69l146 241h73l-260 -422h-12z" />
    <glyph glyph-name="w" unicode="w" horiz-adv-x="669" 
d="M161 -9l-100 423h71l51 -232c6 -26 10 -63 10 -63s15 36 31 63l143 238h9l68 -235c7 -26 12 -63 12 -63s13 36 28 63l126 229h71l-234 -423h-11l-69 246c-8 27 -12 62 -12 62s-12 -34 -27 -59l-156 -249h-11z" />
    <glyph glyph-name="x" unicode="x" horiz-adv-x="460" 
d="M-6 0l198 221l-104 193h76l57 -108c8 -17 17 -45 17 -45s14 28 27 44l97 109h80l-169 -190l122 -224h-77l-72 135c-10 18 -19 50 -19 50s-17 -33 -32 -49l-122 -136h-79z" />
    <glyph glyph-name="y" unicode="y" horiz-adv-x="504" 
d="M184 -223c-83 0 -146 38 -176 99l54 35c26 -46 60 -74 122 -74c73 0 122 45 138 133l18 99c-30 -44 -75 -78 -141 -78c-91 0 -151 70 -131 184l42 239h68l-41 -233c-14 -79 15 -129 86 -129c75 0 122 45 137 129l42 233h68l-80 -453c-22 -125 -97 -184 -206 -184z" />
    <glyph glyph-name="z" unicode="z" horiz-adv-x="421" 
d="M10 0v10l294 347h-211l10 57h318v-11l-293 -347h230l-10 -56h-338z" />
    <glyph glyph-name="braceleft" unicode="{" horiz-adv-x="361" 
d="M217 -128c-71 0 -133 33 -112 151l25 147c10 56 -7 68 -42 68h-59l10 59h56c38 0 61 16 71 74l39 217c21 114 79 134 141 134h71l-10 -59h-55c-42 0 -66 -14 -78 -80l-40 -227c-11 -63 -40 -82 -82 -89c38 -10 59 -37 48 -99l-26 -151c-12 -69 10 -86 53 -86h51l-11 -59
h-50z" />
    <glyph glyph-name="bar" unicode="|" horiz-adv-x="236" 
d="M25 -128l150 850h67l-150 -850h-67z" />
    <glyph glyph-name="braceright" unicode="}" horiz-adv-x="362" 
d="M-25 -128l10 59h56c41 0 66 14 77 80l29 167c11 64 41 83 83 90c-39 9 -59 36 -49 98l38 211c12 69 -10 86 -53 86h-51l10 59h51c70 0 133 -33 112 -151l-37 -207c-10 -55 7 -68 42 -68h60l-11 -58h-55c-39 0 -61 -17 -72 -75l-28 -157c-20 -113 -79 -134 -141 -134h-71z
" />
    <glyph glyph-name="asciitilde" unicode="~" horiz-adv-x="386" 
d="M110 224l-51 6c13 74 46 110 93 110c25 0 45 -14 64 -31c21 -18 31 -30 46 -30c19 0 30 14 41 60l51 -6c-12 -73 -45 -110 -92 -110c-25 0 -46 14 -65 31c-21 19 -30 30 -45 30c-19 0 -31 -14 -42 -60z" />
    <glyph glyph-name="exclamdown" unicode="&#xa1;" horiz-adv-x="235" 
d="M194 687c27 0 51 -23 51 -53s-24 -53 -51 -53c-28 0 -53 23 -53 53s25 53 53 53zM195 490l-77 -490h-77l101 490h53z" />
    <glyph glyph-name="cent" unicode="&#xa2;" horiz-adv-x="455" 
d="M188 1c-84 25 -142 101 -142 197c0 124 91 221 216 225l19 106h50l-19 -109c52 -9 90 -36 117 -71l-50 -40c-19 25 -44 44 -77 52l-55 -311h3c62 0 92 26 110 41l40 -44c-32 -30 -78 -55 -150 -55h-13l-19 -108h-50zM252 363c-83 -8 -137 -74 -137 -166
c0 -63 32 -117 83 -137z" />
    <glyph glyph-name="sterling" unicode="&#xa3;" horiz-adv-x="540" 
d="M188 260h-96l10 55h78c-5 39 -10 77 -10 113c0 121 78 190 193 190c86 0 141 -47 171 -106l-55 -33c-26 48 -58 78 -117 78c-77 0 -122 -42 -122 -134c0 -36 4 -71 7 -108h157l-10 -55h-141c4 -31 6 -64 6 -99c0 -21 -3 -41 -8 -59c34 -26 68 -51 110 -51
c43 0 69 19 93 44l41 -42c-33 -39 -75 -61 -134 -61c-55 0 -97 29 -134 60c-27 -39 -70 -60 -117 -60c-63 0 -102 38 -102 88c0 57 45 90 103 90c33 0 61 -12 87 -28v9c0 35 -4 72 -10 109zM185 88c-25 21 -48 36 -74 36c-29 0 -49 -18 -49 -43c0 -24 18 -43 48 -43
s59 18 75 50z" />
    <glyph glyph-name="fraction" unicode="&#x2044;" horiz-adv-x="397" 
d="M-29 0l401 504h70l-400 -504h-71z" />
    <glyph glyph-name="fraction" unicode="&#x2215;" horiz-adv-x="397" 
d="M-29 0l401 504h70l-400 -504h-71z" />
    <glyph glyph-name="yen" unicode="&#xa5;" horiz-adv-x="543" 
d="M226 167l-28 70h-136l9 55h105l-84 212h73l90 -232c10 -30 16 -71 16 -71s14 39 35 70l172 233h77l-159 -212h104l-9 -55h-136l-52 -70h176l-9 -55h-181l-19 -112h-70l20 112h-179l9 55h176z" />
    <glyph glyph-name="florin" unicode="&#x192;" horiz-adv-x="348" 
d="M115 207h-70l9 53h70l40 229c16 93 57 129 121 129c51 0 81 -23 101 -55l-49 -37c-12 19 -24 32 -51 32c-29 0 -45 -14 -55 -71l-40 -227h93l-9 -53h-93l-74 -419h-67z" />
    <glyph glyph-name="section" unicode="&#xa7;" horiz-adv-x="486" 
d="M145 413c-8 18 -12 38 -12 61c0 84 66 144 157 144c81 0 125 -36 152 -91l-55 -29c-19 37 -47 63 -96 63c-59 0 -90 -37 -90 -86c0 -39 16 -64 58 -83l89 -42c78 -35 108 -79 108 -136c0 -59 -36 -95 -96 -117c10 -18 15 -39 15 -64c0 -81 -61 -136 -164 -136
c-95 0 -157 51 -179 107l57 27c20 -44 56 -77 120 -77c60 0 96 32 96 79c0 40 -23 61 -70 82l-80 37c-76 35 -108 73 -108 141c0 61 42 104 98 120zM331 133c38 13 59 37 59 75c0 34 -17 59 -69 83l-87 41c-26 12 -48 27 -65 45c-38 -13 -57 -43 -57 -77
c0 -43 21 -64 69 -87l80 -36c28 -13 52 -27 70 -44z" />
    <glyph glyph-name="currency" unicode="&#xa4;" horiz-adv-x="603" 
d="M110 283h-62l9 53h65c38 108 140 176 248 176c91 0 153 -34 196 -99l-53 -36c-30 47 -69 74 -143 74c-77 0 -144 -43 -174 -115h226l-9 -53h-232c-2 -12 -3 -26 -3 -40c0 -9 0 -18 1 -26h222l-9 -53h-202c23 -70 80 -112 161 -112c67 0 108 25 146 66l47 -38
c-48 -59 -109 -88 -194 -88c-116 0 -204 68 -233 172h-90l9 53h72c-1 8 -1 16 -1 25c0 14 1 28 3 41z" />
    <glyph glyph-name="quotesingle" unicode="'" horiz-adv-x="153" 
d="M95 470l29 210h73l-47 -210h-55z" />
    <glyph glyph-name="quotedblleft" unicode="&#x201c;" horiz-adv-x="351" 
d="M311 475c-29 0 -51 20 -51 50c0 15 7 32 17 48l70 107h37l-51 -108c16 -7 29 -23 29 -47c0 -29 -25 -50 -51 -50zM153 475c-29 0 -50 20 -50 50c0 15 7 32 17 48l69 107h38l-52 -108c17 -7 29 -23 29 -47c0 -29 -25 -50 -51 -50z" />
    <glyph glyph-name="guillemotleft" unicode="&#xab;" horiz-adv-x="390" 
d="M252 37l-65 151l1 8l118 165h75l-126 -172l68 -152h-71zM102 37l-66 151l1 8l118 165h75l-125 -172l67 -152h-70z" />
    <glyph glyph-name="guilsinglleft" unicode="&#x2039;" horiz-adv-x="239" 
d="M100 37l-65 150v8l119 166h75l-126 -172l68 -152h-71z" />
    <glyph glyph-name="guilsinglright" unicode="&#x203a;" horiz-adv-x="238" 
d="M8 37l126 173l-68 151h71l65 -149v-8l-119 -167h-75z" />
    <glyph glyph-name="endash" unicode="&#x2013;" horiz-adv-x="383" 
d="M27 164l11 60h314l-10 -60h-315z" />
    <glyph glyph-name="dagger" unicode="&#x2020;" horiz-adv-x="335" 
d="M191 519h-93l10 57h93l19 104h63l-18 -104h93l-10 -57h-93l-42 -238h-64z" />
    <glyph glyph-name="daggerdbl" unicode="&#x2021;" horiz-adv-x="335" 
d="M192 523h-94l10 53h93l19 104h63l-19 -104h94l-10 -53h-93l-15 -85h93l-8 -53h-94l-19 -105h-63l19 105h-94l9 53h94z" />
    <glyph glyph-name="periodcentered" unicode="&#xb7;" 
d="M107 189c-28 0 -54 24 -54 55s26 54 54 54c29 0 54 -23 54 -54s-25 -55 -54 -55z" />
    <glyph glyph-name="periodcentered" unicode="&#x2219;" 
d="M107 189c-28 0 -54 24 -54 55s26 54 54 54c29 0 54 -23 54 -54s-25 -55 -54 -55z" />
    <glyph glyph-name="paragraph" unicode="&#xb6;" horiz-adv-x="619" 
d="M327 304h-41c-120 0 -186 77 -186 174c0 112 83 202 213 202h298l-120 -680h-69l109 620h-79l-109 -620h-69zM338 364l45 256h-73c-83 0 -135 -55 -135 -141c0 -74 43 -115 115 -115h48z" />
    <glyph glyph-name="bullet" unicode="&#x2022;" horiz-adv-x="276" 
d="M147 160c-50 0 -94 42 -94 94c0 54 44 95 94 95s94 -41 94 -95c0 -52 -44 -94 -94 -94z" />
    <glyph glyph-name="quotesinglbase" unicode="&#x201a;" horiz-adv-x="194" 
d="M2 -93l46 98c-16 7 -29 23 -29 47c0 29 25 50 51 50c30 0 51 -20 51 -50c0 -15 -7 -32 -17 -48l-64 -97h-38z" />
    <glyph glyph-name="quotedblbase" unicode="&#x201e;" horiz-adv-x="352" 
d="M160 -93l46 98c-17 7 -29 23 -29 47c0 29 25 50 51 50c29 0 51 -20 51 -50c0 -14 -8 -32 -18 -48l-64 -97h-37zM2 -93l46 98c-16 7 -29 23 -29 47c0 29 25 50 51 50c30 0 51 -20 51 -50c0 -15 -7 -32 -17 -48l-64 -97h-38z" />
    <glyph glyph-name="quotedblright" unicode="&#x201d;" horiz-adv-x="351" 
d="M257 482l52 108c-17 7 -29 23 -29 47c0 29 25 50 51 50c29 0 50 -20 50 -50c0 -15 -7 -32 -17 -48l-69 -107h-38zM100 482l51 108c-16 7 -29 23 -29 47c0 29 25 50 51 50c29 0 51 -20 51 -50c0 -15 -7 -32 -18 -48l-69 -107h-37z" />
    <glyph glyph-name="guillemotright" unicode="&#xbb;" horiz-adv-x="389" 
d="M159 37l126 173l-68 151h71l65 -150l-1 -8l-118 -166h-75zM8 37l126 173l-68 151h71l66 -150l-2 -8l-118 -166h-75z" />
    <glyph glyph-name="ellipsis" unicode="&#x2026;" horiz-adv-x="594" 
d="M469 -7c-27 0 -53 23 -53 53c0 31 26 54 53 54c28 0 52 -23 52 -54c0 -30 -24 -53 -52 -53zM270 -7c-27 0 -53 23 -53 53c0 31 26 54 53 54c28 0 52 -23 52 -54c0 -30 -24 -53 -52 -53zM71 -7c-27 0 -53 23 -53 53c0 31 26 54 53 54c28 0 52 -23 52 -54
c0 -30 -24 -53 -52 -53z" />
    <glyph glyph-name="perthousand" unicode="&#x2030;" horiz-adv-x="1120" 
d="M194 218c-79 0 -142 58 -142 140c0 90 74 154 154 154c79 0 142 -57 142 -138c0 -93 -73 -156 -154 -156zM163 0l401 504h70l-401 -504h-70zM931 -8c-79 0 -142 58 -142 140c0 90 74 153 155 153c78 0 141 -57 141 -138c0 -93 -73 -155 -154 -155zM589 -8
c-79 0 -142 58 -142 140c0 90 74 153 154 153c79 0 142 -57 142 -138c0 -93 -73 -155 -154 -155zM194 271c52 0 93 40 93 102c0 54 -33 85 -81 85c-52 0 -93 -39 -93 -99c0 -55 34 -88 81 -88zM932 44c52 0 93 41 93 102c0 54 -34 86 -81 86c-52 0 -94 -40 -94 -100
c0 -55 34 -88 82 -88zM589 44c52 0 93 41 93 102c0 54 -34 86 -81 86c-52 0 -93 -40 -93 -100c0 -55 34 -88 81 -88z" />
    <glyph glyph-name="questiondown" unicode="&#xbf;" horiz-adv-x="467" 
d="M329 687c27 0 52 -22 52 -52s-25 -53 -52 -53s-52 23 -52 53s25 52 52 52zM338 494l-31 -176h-44c-99 0 -150 -64 -150 -143c0 -75 48 -121 120 -121c64 0 106 29 139 89l53 -30c-35 -76 -106 -120 -193 -120c-114 0 -189 75 -189 182c0 114 85 197 209 197l21 122h65z
" />
    <glyph glyph-name="grave" unicode="`" horiz-adv-x="497" 
d="M259 498l-87 193h80l61 -193h-54z" />
    <glyph glyph-name="acute" unicode="&#xb4;" horiz-adv-x="497" 
d="M267 498l98 193h84l-127 -193h-55z" />
    <glyph glyph-name="circumflex" unicode="&#x2c6;" horiz-adv-x="496" 
d="M168 496l158 193h10l94 -193h-55l-56 106l-91 -106h-60z" />
    <glyph glyph-name="tilde" unicode="&#x2dc;" horiz-adv-x="490" 
d="M208 492l-51 6c13 74 46 110 93 110c25 0 45 -14 64 -31c21 -18 31 -30 46 -30c19 0 30 14 41 60l51 -6c-12 -73 -45 -110 -92 -110c-25 0 -46 14 -65 31c-21 19 -30 30 -45 30c-19 0 -31 -14 -42 -60z" />
    <glyph glyph-name="macron" unicode="&#xaf;" horiz-adv-x="497" 
d="M200 519l9 54h209l-10 -54h-208z" />
    <glyph glyph-name="macron" unicode="&#x2c9;" horiz-adv-x="497" 
d="M200 519l9 54h209l-10 -54h-208z" />
    <glyph glyph-name="breve" unicode="&#x2d8;" horiz-adv-x="497" 
d="M302 489c-76 0 -117 55 -122 117l56 9c6 -39 20 -71 66 -71c49 0 70 35 79 71l56 -10c-14 -61 -58 -116 -135 -116z" />
    <glyph glyph-name="dotaccent" unicode="&#x2d9;" horiz-adv-x="496" 
d="M312 516c-24 0 -46 20 -46 46s22 46 46 46c23 0 45 -20 45 -46s-22 -46 -45 -46z" />
    <glyph glyph-name="dieresis" unicode="&#xa8;" horiz-adv-x="497" 
d="M397 517c-23 0 -45 20 -45 45c0 26 22 46 45 46c24 0 45 -20 45 -46c0 -25 -21 -45 -45 -45zM227 517c-24 0 -45 20 -45 45c0 26 21 46 45 46c23 0 45 -20 45 -46c0 -25 -22 -45 -45 -45z" />
    <glyph glyph-name="ring" unicode="&#x2da;" horiz-adv-x="497" 
d="M315 484c-58 0 -104 45 -104 100c0 56 46 101 104 101s104 -45 104 -101c0 -55 -46 -100 -104 -100zM315 528c30 0 52 22 52 56c0 35 -22 56 -52 56s-53 -21 -53 -56c0 -34 23 -56 53 -56z" />
    <glyph glyph-name="cedilla" unicode="&#xb8;" horiz-adv-x="497" 
d="M209 -232c-53 0 -88 28 -102 60l44 24c9 -20 23 -37 55 -37c28 0 47 18 47 46c0 25 -15 48 -51 48h-21l16 91h46l-9 -53c37 -6 72 -38 72 -87c0 -58 -46 -92 -97 -92z" />
    <glyph glyph-name="hungarumlaut" unicode="&#x2dd;" horiz-adv-x="497" 
d="M320 498l100 193h77l-122 -193h-55zM183 498l100 193h77l-122 -193h-55z" />
    <glyph glyph-name="ogonek" unicode="&#x2db;" horiz-adv-x="497" 
d="M222 -232c-47 0 -93 29 -93 85c0 47 29 83 60 113l35 34h51l-45 -53c-30 -36 -45 -58 -45 -91c0 -25 18 -41 42 -41c26 0 38 17 51 36l41 -25c-16 -31 -44 -58 -97 -58z" />
    <glyph glyph-name="caron" unicode="&#x2c7;" horiz-adv-x="496" 
d="M295 487l-94 194h56l56 -107l90 107h60l-158 -194h-10z" />
    <glyph glyph-name="emdash" unicode="&#x2014;" horiz-adv-x="606" 
d="M27 164l11 60h537l-11 -60h-537z" />
    <glyph glyph-name="AE" unicode="&#xc6;" horiz-adv-x="927" 
d="M162 114l-93 -114h-79l562 680h388l-10 -62h-332l-57 -321h295l-10 -62h-296l-31 -173h346l-11 -62h-416l20 114h-276zM448 174l54 308c7 37 24 89 24 89s-32 -51 -56 -80l-259 -317h237z" />
    <glyph glyph-name="ordfeminine" unicode="&#xaa;" horiz-adv-x="471" 
d="M213 146c-84 0 -148 65 -148 169c0 120 81 197 177 197c61 0 112 -38 128 -101l14 93h61l-48 -274c-3 -17 4 -27 18 -27h32l-9 -50h-38c-50 0 -65 25 -62 61v6c-30 -46 -71 -74 -125 -74zM228 200c71 0 126 57 126 140c0 68 -38 118 -103 118c-73 0 -121 -58 -121 -143
c0 -68 36 -115 98 -115z" />
    <glyph glyph-name="Lslash" unicode="&#x141;" horiz-adv-x="520" 
d="M168 228l-29 -165h315l-11 -63h-386l35 199l-80 -30l11 66l81 31l73 414h71l-68 -385l201 76l-11 -67z" />
    <glyph glyph-name="Oslash" unicode="&#xd8;" horiz-adv-x="784" 
d="M692 569c42 -55 67 -125 67 -206c0 -217 -163 -371 -362 -371c-85 0 -159 28 -216 76l-78 -77l-42 43l79 78c-42 54 -67 125 -67 206c0 217 162 370 361 370c84 0 160 -28 216 -76l78 76l42 -43zM190 161l412 404c-42 38 -100 59 -168 59c-165 0 -288 -130 -288 -306
c0 -61 16 -114 44 -157zM642 520l-413 -405c43 -38 102 -60 170 -60c165 0 287 133 287 309c0 60 -16 114 -44 156z" />
    <glyph glyph-name="OE" unicode="&#x152;" horiz-adv-x="980" 
d="M381 0c-200 0 -313 122 -313 302c0 229 154 378 396 378h529l-12 -63h-335l-56 -320h298l-10 -63h-299l-30 -171h348l-11 -63h-505zM388 62h90l98 556h-109c-219 0 -325 -135 -325 -318c0 -139 75 -238 246 -238z" />
    <glyph glyph-name="ordmasculine" unicode="&#xba;" horiz-adv-x="445" 
d="M238 146c-98 0 -172 75 -172 177c0 110 84 189 184 189c99 0 172 -79 172 -177c0 -114 -84 -189 -184 -189zM239 200c69 0 118 54 118 137c0 68 -42 121 -108 121c-70 0 -117 -55 -117 -137c0 -70 41 -121 107 -121z" />
    <glyph glyph-name="ae" unicode="&#xe6;" horiz-adv-x="778" 
d="M381 342c36 50 91 81 158 81c130 0 194 -92 196 -217l-340 -36c10 -72 63 -121 141 -121c61 0 101 22 130 52l43 -42c-40 -41 -98 -67 -173 -67c-87 0 -149 44 -178 109c-25 -64 -78 -109 -178 -109c-90 0 -150 45 -150 118c0 98 79 133 168 133h133l1 3
c14 80 -25 121 -84 121c-53 0 -92 -25 -118 -59l-41 40c32 43 88 75 161 75c60 0 110 -29 131 -81zM394 222l269 28c-6 59 -42 117 -124 117c-80 0 -136 -59 -145 -145zM323 192h-125c-57 0 -99 -18 -99 -78c0 -41 30 -67 86 -67c78 0 119 38 129 92z" />
    <glyph glyph-name="dotlessi" unicode="&#x131;" horiz-adv-x="233" 
d="M127 0c-61 0 -80 29 -69 92l56 322h68l-57 -327c-4 -21 0 -32 19 -32h41l-10 -55h-48z" />
    <glyph glyph-name="lslash" unicode="&#x142;" horiz-adv-x="273" 
d="M180 280l-34 -193c-4 -21 0 -32 19 -32h46l-10 -55h-53c-61 0 -80 29 -69 92l26 146l-89 -49l12 70l89 49l73 414h69l-66 -373l99 55l-12 -69z" />
    <glyph glyph-name="oslash" unicode="&#xf8;" horiz-adv-x="521" 
d="M440 336c23 -33 37 -74 37 -119c0 -129 -98 -225 -223 -225c-52 0 -99 18 -135 49l-58 -53l-35 37l58 53c-23 34 -37 74 -37 119c0 129 99 226 224 226c52 0 100 -19 135 -50l57 52l34 -37zM132 122l230 210c-23 22 -55 34 -92 34c-92 0 -155 -73 -155 -170
c0 -27 6 -53 17 -74zM392 292l-230 -211c24 -21 56 -33 93 -33c93 0 154 73 154 170c0 27 -6 53 -17 74z" />
    <glyph glyph-name="oe" unicode="&#x153;" horiz-adv-x="859" 
d="M438 103c-34 -67 -99 -111 -185 -111c-116 0 -207 91 -207 205c0 129 100 226 225 226c83 0 144 -46 173 -112c33 68 97 112 177 112c130 0 193 -92 195 -217l-340 -36c11 -72 64 -121 142 -121c60 0 100 22 129 52l43 -42c-40 -41 -97 -67 -172 -67
c-88 0 -151 45 -180 111zM475 222l269 28c-6 59 -41 117 -124 117c-81 0 -136 -59 -145 -145zM254 51c92 0 152 71 152 167c0 83 -54 145 -137 145c-90 0 -153 -71 -153 -167c0 -84 56 -145 138 -145z" />
    <glyph glyph-name="germandbls" unicode="&#xdf;" horiz-adv-x="527" 
d="M347 398c82 -25 134 -92 134 -185c0 -133 -81 -218 -213 -218c-43 0 -72 9 -90 17l18 55c16 -6 37 -13 69 -13c96 0 145 65 145 166c0 87 -53 145 -160 149l10 56c82 5 151 58 151 150c0 73 -41 102 -94 102c-63 0 -102 -37 -118 -130l-114 -645
c-16 -95 -56 -114 -121 -114h-42l10 55h30c26 0 47 10 57 66l113 643c22 126 89 183 186 183c91 0 158 -57 158 -159c0 -85 -50 -149 -129 -178z" />
    <glyph glyph-name="onesuperior" unicode="&#xb9;" 
d="M107 189c-28 0 -54 24 -54 55s26 54 54 54c29 0 54 -23 54 -54s-25 -55 -54 -55z" />
    <glyph glyph-name="logicalnot" unicode="&#xac;" 
d="M107 189c-28 0 -54 24 -54 55s26 54 54 54c29 0 54 -23 54 -54s-25 -55 -54 -55z" />
    <glyph glyph-name="mu" unicode="&#xb5;" 
d="M107 189c-28 0 -54 24 -54 55s26 54 54 54c29 0 54 -23 54 -54s-25 -55 -54 -55z" />
    <glyph glyph-name="mu" unicode="&#x3bc;" 
d="M107 189c-28 0 -54 24 -54 55s26 54 54 54c29 0 54 -23 54 -54s-25 -55 -54 -55z" />
    <glyph glyph-name="trademark" unicode="&#x2122;" horiz-adv-x="710" 
d="M370 383l54 302h8l112 -162l170 162h8l-53 -302h-53l33 187l-110 -111h-10l-72 112l-33 -188h-54zM210 635h-88l8 45h230l-9 -45h-87l-44 -252h-54z" />
    <glyph glyph-name="Eth" unicode="&#xd0;" horiz-adv-x="659" 
d="M97 243h-78l11 62h78l66 375h154c200 0 312 -127 312 -302c0 -226 -152 -378 -395 -378h-191zM179 305h180l-11 -62h-180l-32 -181h105c219 0 325 135 325 318c0 139 -75 238 -246 238h-86z" />
    <glyph glyph-name="onehalf" unicode="&#xbd;" 
d="M107 189c-28 0 -54 24 -54 55s26 54 54 54c29 0 54 -23 54 -54s-25 -55 -54 -55z" />
    <glyph glyph-name="plusminus" horiz-adv-x="742" 
d="M372 356h-176l-80 -454c-17 -95 -56 -114 -122 -114h-42l10 55h30c26 0 47 10 57 66l79 447h-66l10 58h66l31 176c15 88 59 125 125 125c46 0 74 -19 92 -44l-44 -42c-13 17 -23 25 -46 25c-30 0 -50 -14 -60 -68l-30 -172h176l30 167c19 104 80 154 171 154
c97 0 157 -65 137 -177l-82 -471c-4 -21 0 -32 19 -32h45l-9 -55h-53c-61 0 -80 29 -69 92l82 470c14 74 -16 114 -73 114c-59 0 -89 -34 -101 -104l-28 -158h102l-10 -58h-102l-77 -432c-16 -95 -56 -114 -122 -114h-39l10 55h28c25 0 46 10 56 65z" />
    <glyph glyph-name="Thorn" unicode="&#xde;" horiz-adv-x="566" 
d="M232 601h61c162 0 247 -102 246 -232c-1 -167 -106 -280 -301 -280h-96l-16 -89h-71l120 680h71zM153 151h86c163 0 226 92 227 218c1 98 -52 171 -178 171h-67z" />
    <glyph glyph-name="onequarter" unicode="&#xbc;" 
d="M107 189c-28 0 -54 24 -54 55s26 54 54 54c29 0 54 -23 54 -54s-25 -55 -54 -55z" />
    <glyph glyph-name="divide" unicode="&#xf7;" 
d="M107 189c-28 0 -54 24 -54 55s26 54 54 54c29 0 54 -23 54 -54s-25 -55 -54 -55z" />
    <glyph glyph-name="brokenbar" unicode="&#xa6;" 
d="M107 189c-28 0 -54 24 -54 55s26 54 54 54c29 0 54 -23 54 -54s-25 -55 -54 -55z" />
    <glyph glyph-name="degree" unicode="&#xb0;" horiz-adv-x="323" 
d="M187 286c-63 0 -112 48 -112 109c0 68 55 117 120 117c63 0 111 -48 111 -109c0 -67 -54 -117 -119 -117zM187 330c40 0 67 32 67 74c0 38 -23 63 -60 63c-40 0 -68 -31 -68 -73c0 -38 24 -64 61 -64z" />
    <glyph glyph-name="thorn" unicode="&#xfe;" horiz-adv-x="534" 
d="M-2 -212l164 934h68l-68 -389c34 57 88 90 152 90c104 0 176 -81 176 -199c0 -136 -94 -232 -207 -232c-79 0 -140 50 -160 117l-57 -321h-68zM268 51c91 0 152 74 152 173c0 82 -48 139 -124 139c-89 0 -156 -71 -156 -169c0 -82 49 -143 128 -143z" />
    <glyph glyph-name="threequarters" unicode="&#xbe;" 
d="M107 189c-28 0 -54 24 -54 55s26 54 54 54c29 0 54 -23 54 -54s-25 -55 -54 -55z" />
    <glyph glyph-name="twosuperior" unicode="&#xb2;" 
d="M107 189c-28 0 -54 24 -54 55s26 54 54 54c29 0 54 -23 54 -54s-25 -55 -54 -55z" />
    <glyph glyph-name="registered" unicode="&#xae;" horiz-adv-x="515" 
d="M304 265c-119 0 -216 90 -216 214c0 125 97 215 216 215c120 0 219 -90 219 -215c0 -124 -99 -214 -219 -214zM304 299c105 0 180 71 180 180c0 110 -75 181 -180 181c-103 0 -176 -71 -176 -181c0 -109 73 -180 176 -180zM351 430l35 -67h-46l-30 57h-12h-37l-10 -57
h-44l42 236h64c66 0 97 -44 93 -93c-2 -36 -23 -63 -55 -76zM267 455h32c44 0 59 20 62 51c4 31 -11 57 -50 57h-25z" />
    <glyph glyph-name="minus" unicode="&#x2212;" 
d="M107 189c-28 0 -54 24 -54 55s26 54 54 54c29 0 54 -23 54 -54s-25 -55 -54 -55z" />
    <glyph glyph-name="eth" unicode="&#xf0;" horiz-adv-x="521" 
d="M310 580l-76 -59l-27 38l76 60c-20 29 -41 56 -63 80l43 39c23 -23 47 -49 70 -80l75 59l28 -38l-76 -59c65 -96 118 -221 118 -370c0 -162 -89 -258 -225 -258c-119 0 -205 87 -205 208c0 133 104 223 215 223c63 0 109 -26 138 -70c-16 86 -50 162 -91 227zM254 50
c91 0 152 70 152 174c0 81 -53 140 -134 140c-89 0 -155 -69 -155 -166c0 -86 53 -148 137 -148z" />
    <glyph glyph-name="multiply" unicode="&#xd7;" 
d="M107 189c-28 0 -54 24 -54 55s26 54 54 54c29 0 54 -23 54 -54s-25 -55 -54 -55z" />
    <glyph glyph-name="threesuperior" unicode="&#xb3;" 
d="M107 189c-28 0 -54 24 -54 55s26 54 54 54c29 0 54 -23 54 -54s-25 -55 -54 -55z" />
    <glyph glyph-name="copyright" unicode="&#xa9;" horiz-adv-x="599" 
d="M308 -7c-141 0 -260 110 -260 259c0 150 119 260 260 260s260 -110 260 -260c0 -149 -119 -259 -260 -259zM308 33c122 0 217 91 217 219c0 129 -95 220 -217 220s-218 -91 -218 -220c0 -128 96 -219 218 -219zM308 103c-83 0 -144 64 -144 146c0 90 66 153 149 153
c53 0 88 -21 113 -49l-42 -37c-16 20 -36 32 -69 32c-51 0 -89 -41 -89 -99c0 -54 34 -92 82 -92c35 0 55 13 71 30l39 -37c-24 -26 -59 -47 -110 -47z" />
    <glyph glyph-name="Aacute" unicode="&#xc1;" horiz-adv-x="642" 
d="M374 753l98 193h84l-127 -193h-55zM137 115l-65 -115h-72l398 687h11l161 -687h-71l-26 115h-336zM460 174l-68 301c-8 34 -12 78 -12 78s-17 -43 -37 -78l-172 -301h289z" />
    <glyph glyph-name="Acircumflex" unicode="&#xc2;" horiz-adv-x="642" 
d="M265 751l158 193h10l94 -193h-55l-56 106l-91 -106h-60zM137 115l-65 -115h-72l398 687h11l161 -687h-71l-26 115h-336zM460 174l-68 301c-8 34 -12 78 -12 78s-17 -43 -37 -78l-172 -301h289z" />
    <glyph glyph-name="Adieresis" unicode="&#xc4;" horiz-adv-x="642" 
d="M495 772c-23 0 -45 20 -45 45c0 26 22 46 45 46c24 0 45 -20 45 -46c0 -25 -21 -45 -45 -45zM325 772c-24 0 -45 20 -45 45c0 26 21 46 45 46c23 0 45 -20 45 -46c0 -25 -22 -45 -45 -45zM137 115l-65 -115h-72l398 687h11l161 -687h-71l-26 115h-336zM460 174l-68 301
c-8 34 -12 78 -12 78s-17 -43 -37 -78l-172 -301h289z" />
    <glyph glyph-name="Agrave" unicode="&#xc0;" horiz-adv-x="642" 
d="M372 753l-87 193h80l61 -193h-54zM137 115l-65 -115h-72l398 687h11l161 -687h-71l-26 115h-336zM460 174l-68 301c-8 34 -12 78 -12 78s-17 -43 -37 -78l-172 -301h289z" />
    <glyph glyph-name="Aring" unicode="&#xc5;" horiz-adv-x="642" 
d="M409 739c-58 0 -104 45 -104 100c0 56 46 101 104 101s104 -45 104 -101c0 -55 -46 -100 -104 -100zM137 115l-65 -115h-72l398 687h11l161 -687h-71l-26 115h-336zM409 783c30 0 52 22 52 56c0 35 -22 56 -52 56s-53 -21 -53 -56c0 -34 23 -56 53 -56zM460 174l-68 301
c-8 34 -12 78 -12 78s-17 -43 -37 -78l-172 -301h289z" />
    <glyph glyph-name="Atilde" unicode="&#xc3;" horiz-adv-x="642" 
d="M305 747l-51 6c13 74 46 110 93 110c25 0 45 -14 64 -31c21 -18 31 -30 46 -30c19 0 30 14 41 60l51 -6c-12 -73 -45 -110 -92 -110c-25 0 -46 14 -65 31c-21 19 -30 30 -45 30c-19 0 -31 -14 -42 -60zM137 115l-65 -115h-72l398 687h11l161 -687h-71l-26 115h-336z
M460 174l-68 301c-8 34 -12 78 -12 78s-17 -43 -37 -78l-172 -301h289z" />
    <glyph glyph-name="Ccedilla" unicode="&#xc7;" horiz-adv-x="712" 
d="M333 -3c-154 26 -262 155 -262 323c0 213 163 368 363 368c120 0 207 -48 261 -133l-56 -37c-43 64 -109 107 -207 107c-163 0 -288 -132 -288 -303c0 -155 104 -267 251 -267c100 0 169 43 218 99l52 -41c-65 -75 -151 -121 -273 -121h-13l-8 -45c37 -6 72 -38 72 -87
c0 -58 -46 -92 -97 -92c-53 0 -88 28 -102 60l44 24c9 -20 23 -37 55 -37c28 0 47 18 47 46c0 25 -15 48 -51 48h-21z" />
    <glyph glyph-name="Eacute" unicode="&#xc9;" horiz-adv-x="566" 
d="M351 753l98 193h84l-127 -193h-55zM54 0l120 680h405l-10 -62h-336l-56 -321h298l-11 -61h-298l-31 -174h349l-11 -62h-419z" />
    <glyph glyph-name="Ecircumflex" unicode="&#xca;" horiz-adv-x="566" 
d="M252 751l158 193h10l94 -193h-55l-56 106l-91 -106h-60zM54 0l120 680h405l-10 -62h-336l-56 -321h298l-11 -61h-298l-31 -174h349l-11 -62h-419z" />
    <glyph glyph-name="Edieresis" unicode="&#xcb;" horiz-adv-x="566" 
d="M474 772c-23 0 -45 20 -45 45c0 26 22 46 45 46c24 0 45 -20 45 -46c0 -25 -21 -45 -45 -45zM304 772c-24 0 -45 20 -45 45c0 26 21 46 45 46c23 0 45 -20 45 -46c0 -25 -22 -45 -45 -45zM54 0l120 680h405l-10 -62h-336l-56 -321h298l-11 -61h-298l-31 -174h349l-11 -62
h-419z" />
    <glyph glyph-name="Egrave" unicode="&#xc8;" horiz-adv-x="566" 
d="M359 753l-87 193h80l61 -193h-54zM54 0l120 680h405l-10 -62h-336l-56 -321h298l-11 -61h-298l-31 -174h349l-11 -62h-419z" />
    <glyph glyph-name="Iacute" unicode="&#xcd;" horiz-adv-x="259" 
d="M189 753l98 193h84l-127 -193h-55zM58 0l120 680h71l-120 -680h-71z" />
    <glyph glyph-name="Icircumflex" unicode="&#xce;" horiz-adv-x="259" 
d="M92 751l158 193h10l94 -193h-55l-56 106l-91 -106h-60zM58 0l120 680h71l-120 -680h-71z" />
    <glyph glyph-name="Idieresis" unicode="&#xcf;" horiz-adv-x="259" 
d="M325 772c-23 0 -45 20 -45 45c0 26 22 46 45 46c24 0 45 -20 45 -46c0 -25 -21 -45 -45 -45zM155 772c-24 0 -45 20 -45 45c0 26 21 46 45 46c23 0 45 -20 45 -46c0 -25 -22 -45 -45 -45zM58 0l120 680h71l-120 -680h-71z" />
    <glyph glyph-name="Igrave" unicode="&#xcc;" horiz-adv-x="259" 
d="M189 753l-87 193h80l61 -193h-54zM58 0l120 680h71l-120 -680h-71z" />
    <glyph glyph-name="Ntilde" unicode="&#xd1;" horiz-adv-x="697" 
d="M342 747l-51 6c13 74 46 110 93 110c25 0 45 -14 64 -31c21 -18 31 -30 46 -30c19 0 30 14 41 60l51 -6c-12 -73 -45 -110 -92 -110c-25 0 -46 14 -65 31c-21 19 -30 30 -45 30c-19 0 -31 -14 -42 -60zM558 -7l-312 481c-18 28 -37 64 -37 64s-1 -47 -7 -76l-81 -462h-67
l121 687h11l313 -483c18 -28 36 -64 36 -64s2 42 7 76l82 464h67l-121 -687h-12z" />
    <glyph glyph-name="Oacute" unicode="&#xd3;" horiz-adv-x="784" 
d="M429 753l98 193h84l-127 -193h-55zM395 -8c-183 0 -322 133 -322 326c0 217 162 370 363 370c182 0 323 -133 323 -325c0 -217 -163 -371 -364 -371zM398 55c167 0 288 133 288 309c0 154 -102 260 -251 260c-167 0 -289 -130 -289 -306c0 -153 100 -263 252 -263z" />
    <glyph glyph-name="Ocircumflex" unicode="&#xd4;" horiz-adv-x="784" 
d="M327 751l158 193h10l94 -193h-55l-56 106l-91 -106h-60zM395 -8c-183 0 -322 133 -322 326c0 217 162 370 363 370c182 0 323 -133 323 -325c0 -217 -163 -371 -364 -371zM398 55c167 0 288 133 288 309c0 154 -102 260 -251 260c-167 0 -289 -130 -289 -306
c0 -153 100 -263 252 -263z" />
    <glyph glyph-name="Odieresis" unicode="&#xd6;" horiz-adv-x="784" 
d="M554 772c-23 0 -45 20 -45 45c0 26 22 46 45 46c24 0 45 -20 45 -46c0 -25 -21 -45 -45 -45zM384 772c-24 0 -45 20 -45 45c0 26 21 46 45 46c23 0 45 -20 45 -46c0 -25 -22 -45 -45 -45zM395 -8c-183 0 -322 133 -322 326c0 217 162 370 363 370
c182 0 323 -133 323 -325c0 -217 -163 -371 -364 -371zM398 55c167 0 288 133 288 309c0 154 -102 260 -251 260c-167 0 -289 -130 -289 -306c0 -153 100 -263 252 -263z" />
    <glyph glyph-name="Ograve" unicode="&#xd2;" horiz-adv-x="784" 
d="M423 753l-87 193h80l61 -193h-54zM395 -8c-183 0 -322 133 -322 326c0 217 162 370 363 370c182 0 323 -133 323 -325c0 -217 -163 -371 -364 -371zM398 55c167 0 288 133 288 309c0 154 -102 260 -251 260c-167 0 -289 -130 -289 -306c0 -153 100 -263 252 -263z" />
    <glyph glyph-name="Otilde" unicode="&#xd5;" horiz-adv-x="784" 
d="M366 747l-51 6c13 74 46 110 93 110c25 0 45 -14 64 -31c21 -18 31 -30 46 -30c19 0 30 14 41 60l51 -6c-12 -73 -45 -110 -92 -110c-25 0 -46 14 -65 31c-21 19 -30 30 -45 30c-19 0 -31 -14 -42 -60zM395 -8c-183 0 -322 133 -322 326c0 217 162 370 363 370
c182 0 323 -133 323 -325c0 -217 -163 -371 -364 -371zM398 55c167 0 288 133 288 309c0 154 -102 260 -251 260c-167 0 -289 -130 -289 -306c0 -153 100 -263 252 -263z" />
    <glyph glyph-name="Scaron" unicode="&#x160;" horiz-adv-x="528" 
d="M322 742l-94 194h56l56 -107l90 107h60l-158 -194h-10zM243 -8c-119 0 -195 70 -229 134l61 36c33 -54 80 -108 168 -108c94 0 145 53 145 130c0 55 -31 84 -96 126l-47 30c-78 50 -120 102 -120 180c0 104 77 168 176 168c85 0 138 -39 172 -92l-56 -39
c-28 43 -59 69 -119 69c-58 0 -103 -38 -103 -103c0 -52 25 -82 86 -120l47 -30c86 -55 132 -103 132 -190c0 -115 -84 -191 -217 -191z" />
    <glyph glyph-name="Uacute" unicode="&#xda;" horiz-adv-x="648" 
d="M376 753l98 193h84l-127 -193h-55zM313 -8c-141 0 -249 92 -220 260l75 428h72l-75 -429c-23 -132 44 -196 151 -196c96 0 158 45 178 161l81 464h72l-84 -473c-27 -155 -118 -215 -250 -215z" />
    <glyph glyph-name="Ucircumflex" unicode="&#xdb;" horiz-adv-x="648" 
d="M281 751l158 193h10l94 -193h-55l-56 106l-91 -106h-60zM313 -8c-141 0 -249 92 -220 260l75 428h72l-75 -429c-23 -132 44 -196 151 -196c96 0 158 45 178 161l81 464h72l-84 -473c-27 -155 -118 -215 -250 -215z" />
    <glyph glyph-name="Udieresis" unicode="&#xdc;" horiz-adv-x="648" 
d="M503 772c-23 0 -45 20 -45 45c0 26 22 46 45 46c24 0 45 -20 45 -46c0 -25 -21 -45 -45 -45zM333 772c-24 0 -45 20 -45 45c0 26 21 46 45 46c23 0 45 -20 45 -46c0 -25 -22 -45 -45 -45zM313 -8c-141 0 -249 92 -220 260l75 428h72l-75 -429c-23 -132 44 -196 151 -196
c96 0 158 45 178 161l81 464h72l-84 -473c-27 -155 -118 -215 -250 -215z" />
    <glyph glyph-name="Ugrave" unicode="&#xd9;" horiz-adv-x="648" 
d="M376 753l-87 193h80l61 -193h-54zM313 -8c-141 0 -249 92 -220 260l75 428h72l-75 -429c-23 -132 44 -196 151 -196c96 0 158 45 178 161l81 464h72l-84 -473c-27 -155 -118 -215 -250 -215z" />
    <glyph glyph-name="Yacute" unicode="&#xdd;" horiz-adv-x="641" 
d="M374 753l98 193h84l-127 -193h-55zM288 215l-170 465h75l123 -336c10 -28 17 -72 17 -72s19 44 38 72l240 336h79l-331 -466l-38 -214h-71z" />
    <glyph glyph-name="Ydieresis" unicode="&#x178;" horiz-adv-x="641" 
d="M496 772c-23 0 -45 20 -45 45c0 26 22 46 45 46c24 0 45 -20 45 -46c0 -25 -21 -45 -45 -45zM326 772c-24 0 -45 20 -45 45c0 26 21 46 45 46c23 0 45 -20 45 -46c0 -25 -22 -45 -45 -45zM288 215l-170 465h75l123 -336c10 -28 17 -72 17 -72s19 44 38 72l240 336h79
l-331 -466l-38 -214h-71z" />
    <glyph glyph-name="Zcaron" unicode="&#x17d;" horiz-adv-x="577" 
d="M379 742l-94 194h56l56 -107l90 107h60l-158 -194h-10zM9 0v11l469 608h-318l11 61h428v-11l-470 -608h372l-11 -61h-481z" />
    <glyph glyph-name="aacute" unicode="&#xe1;" horiz-adv-x="528" 
d="M258 498l98 193h84l-127 -193h-55zM216 -8c-100 0 -171 78 -171 199c0 138 92 232 204 232c73 0 134 -47 154 -122l17 113h68l-57 -327c-3 -21 1 -32 20 -32h38l-10 -55h-45c-61 0 -74 28 -69 72l3 13c-36 -59 -89 -93 -152 -93zM233 51c85 0 151 70 151 169
c0 81 -47 143 -123 143c-88 0 -146 -73 -146 -173c0 -82 46 -139 118 -139z" />
    <glyph glyph-name="acircumflex" unicode="&#xe2;" horiz-adv-x="528" 
d="M169 496l158 193h10l94 -193h-55l-56 106l-91 -106h-60zM216 -8c-100 0 -171 78 -171 199c0 138 92 232 204 232c73 0 134 -47 154 -122l17 113h68l-57 -327c-3 -21 1 -32 20 -32h38l-10 -55h-45c-61 0 -74 28 -69 72l3 13c-36 -59 -89 -93 -152 -93zM233 51
c85 0 151 70 151 169c0 81 -47 143 -123 143c-88 0 -146 -73 -146 -173c0 -82 46 -139 118 -139z" />
    <glyph glyph-name="adieresis" unicode="&#xe4;" horiz-adv-x="528" 
d="M402 517c-23 0 -45 20 -45 45c0 26 22 46 45 46c24 0 45 -20 45 -46c0 -25 -21 -45 -45 -45zM232 517c-24 0 -45 20 -45 45c0 26 21 46 45 46c23 0 45 -20 45 -46c0 -25 -22 -45 -45 -45zM216 -8c-100 0 -171 78 -171 199c0 138 92 232 204 232c73 0 134 -47 154 -122
l17 113h68l-57 -327c-3 -21 1 -32 20 -32h38l-10 -55h-45c-61 0 -74 28 -69 72l3 13c-36 -59 -89 -93 -152 -93zM233 51c85 0 151 70 151 169c0 81 -47 143 -123 143c-88 0 -146 -73 -146 -173c0 -82 46 -139 118 -139z" />
    <glyph glyph-name="agrave" unicode="&#xe0;" horiz-adv-x="528" 
d="M260 498l-87 193h80l61 -193h-54zM216 -8c-100 0 -171 78 -171 199c0 138 92 232 204 232c73 0 134 -47 154 -122l17 113h68l-57 -327c-3 -21 1 -32 20 -32h38l-10 -55h-45c-61 0 -74 28 -69 72l3 13c-36 -59 -89 -93 -152 -93zM233 51c85 0 151 70 151 169
c0 81 -47 143 -123 143c-88 0 -146 -73 -146 -173c0 -82 46 -139 118 -139z" />
    <glyph glyph-name="aring" unicode="&#xe5;" horiz-adv-x="528" 
d="M316 484c-58 0 -104 45 -104 100c0 56 46 101 104 101s104 -45 104 -101c0 -55 -46 -100 -104 -100zM216 -8c-100 0 -171 78 -171 199c0 138 92 232 204 232c73 0 134 -47 154 -122l17 113h68l-57 -327c-3 -21 1 -32 20 -32h38l-10 -55h-45c-61 0 -74 28 -69 72l3 13
c-36 -59 -89 -93 -152 -93zM316 528c30 0 52 22 52 56c0 35 -22 56 -52 56s-53 -21 -53 -56c0 -34 23 -56 53 -56zM233 51c85 0 151 70 151 169c0 81 -47 143 -123 143c-88 0 -146 -73 -146 -173c0 -82 46 -139 118 -139z" />
    <glyph glyph-name="atilde" unicode="&#xe3;" horiz-adv-x="528" 
d="M215 492l-51 6c13 74 46 110 93 110c25 0 45 -14 64 -31c21 -18 31 -30 46 -30c19 0 30 14 41 60l51 -6c-12 -73 -45 -110 -92 -110c-25 0 -46 14 -65 31c-21 19 -30 30 -45 30c-19 0 -31 -14 -42 -60zM216 -8c-100 0 -171 78 -171 199c0 138 92 232 204 232
c73 0 134 -47 154 -122l17 113h68l-57 -327c-3 -21 1 -32 20 -32h38l-10 -55h-45c-61 0 -74 28 -69 72l3 13c-36 -59 -89 -93 -152 -93zM233 51c85 0 151 70 151 169c0 81 -47 143 -123 143c-88 0 -146 -73 -146 -173c0 -82 46 -139 118 -139z" />
    <glyph glyph-name="ccedilla" unicode="&#xe7;" horiz-adv-x="455" 
d="M193 -1c-87 24 -147 100 -147 199c0 127 95 225 224 225c74 0 126 -31 159 -74l-50 -40c-24 33 -60 54 -109 54c-93 0 -154 -71 -154 -166c0 -82 53 -146 134 -146c61 0 92 25 110 41l40 -45c-31 -29 -78 -55 -150 -55h-12l-8 -45c37 -6 72 -38 72 -87
c0 -58 -46 -92 -97 -92c-53 0 -88 28 -102 60l44 24c9 -20 23 -37 55 -37c28 0 47 18 47 46c0 25 -15 48 -51 48h-21z" />
    <glyph glyph-name="eacute" unicode="&#xe9;" horiz-adv-x="499" 
d="M262 498l98 193h84l-127 -193h-55zM116 170c11 -72 64 -121 142 -121c60 0 100 22 129 52l43 -42c-40 -41 -97 -67 -172 -67c-127 0 -212 88 -212 206c0 128 94 225 215 225c129 0 193 -92 195 -217zM115 222l269 28c-6 59 -41 117 -124 117c-81 0 -136 -59 -145 -145z
" />
    <glyph glyph-name="ecircumflex" unicode="&#xea;" horiz-adv-x="499" 
d="M155 496l158 193h10l94 -193h-55l-56 106l-91 -106h-60zM116 170c11 -72 64 -121 142 -121c60 0 100 22 129 52l43 -42c-40 -41 -97 -67 -172 -67c-127 0 -212 88 -212 206c0 128 94 225 215 225c129 0 193 -92 195 -217zM115 222l269 28c-6 59 -41 117 -124 117
c-81 0 -136 -59 -145 -145z" />
    <glyph glyph-name="edieresis" unicode="&#xeb;" horiz-adv-x="499" 
d="M385 517c-23 0 -45 20 -45 45c0 26 22 46 45 46c24 0 45 -20 45 -46c0 -25 -21 -45 -45 -45zM215 517c-24 0 -45 20 -45 45c0 26 21 46 45 46c23 0 45 -20 45 -46c0 -25 -22 -45 -45 -45zM116 170c11 -72 64 -121 142 -121c60 0 100 22 129 52l43 -42
c-40 -41 -97 -67 -172 -67c-127 0 -212 88 -212 206c0 128 94 225 215 225c129 0 193 -92 195 -217zM115 222l269 28c-6 59 -41 117 -124 117c-81 0 -136 -59 -145 -145z" />
    <glyph glyph-name="egrave" unicode="&#xe8;" horiz-adv-x="499" 
d="M248 498l-87 193h80l61 -193h-54zM116 170c11 -72 64 -121 142 -121c60 0 100 22 129 52l43 -42c-40 -41 -97 -67 -172 -67c-127 0 -212 88 -212 206c0 128 94 225 215 225c129 0 193 -92 195 -217zM115 222l269 28c-6 59 -41 117 -124 117c-81 0 -136 -59 -145 -145z
" />
    <glyph glyph-name="iacute" unicode="&#xed;" horiz-adv-x="233" 
d="M131 498l98 193h84l-127 -193h-55zM127 0c-61 0 -80 29 -69 92l56 322h68l-57 -327c-4 -21 0 -32 19 -32h41l-10 -55h-48z" />
    <glyph glyph-name="icircumflex" unicode="&#xee;" horiz-adv-x="233" 
d="M27 496l158 193h10l94 -193h-55l-56 106l-91 -106h-60zM127 0c-61 0 -80 29 -69 92l56 322h68l-57 -327c-4 -21 0 -32 19 -32h41l-10 -55h-48z" />
    <glyph glyph-name="idieresis" unicode="&#xef;" horiz-adv-x="233" 
d="M256 517c-23 0 -45 20 -45 45c0 26 22 46 45 46c24 0 45 -20 45 -46c0 -25 -21 -45 -45 -45zM86 517c-24 0 -45 20 -45 45c0 26 21 46 45 46c23 0 45 -20 45 -46c0 -25 -22 -45 -45 -45zM127 0c-61 0 -80 29 -69 92l56 322h68l-57 -327c-4 -21 0 -32 19 -32h41l-10 -55
h-48z" />
    <glyph glyph-name="igrave" unicode="&#xec;" horiz-adv-x="233" 
d="M130 498l-87 193h80l61 -193h-54zM127 0c-61 0 -80 29 -69 92l56 322h68l-57 -327c-4 -21 0 -32 19 -32h41l-10 -55h-48z" />
    <glyph glyph-name="ntilde" unicode="&#xf1;" horiz-adv-x="501" 
d="M198 492l-51 6c13 74 46 110 93 110c25 0 45 -14 64 -31c21 -18 31 -30 46 -30c19 0 30 14 41 60l51 -6c-12 -73 -45 -110 -92 -110c-25 0 -46 14 -65 31c-21 19 -30 30 -45 30c-19 0 -31 -14 -42 -60zM35 0l73 414h68l-17 -83c30 55 80 92 147 92c91 0 151 -70 131 -184
l-27 -152c-4 -21 0 -32 20 -32h38l-10 -55h-46c-60 0 -80 29 -69 92l25 141c14 79 -15 129 -86 129c-75 0 -123 -45 -138 -129l-41 -233h-68z" />
    <glyph glyph-name="oacute" unicode="&#xf3;" horiz-adv-x="521" 
d="M264 498l98 193h84l-127 -193h-55zM253 -8c-116 0 -207 91 -207 205c0 129 99 226 224 226c116 0 206 -91 206 -206c0 -129 -98 -225 -223 -225zM254 51c92 0 152 71 152 167c0 83 -54 145 -137 145c-90 0 -153 -71 -153 -167c0 -84 56 -145 138 -145z" />
    <glyph glyph-name="ocircumflex" unicode="&#xf4;" horiz-adv-x="521" 
d="M167 496l158 193h10l94 -193h-55l-56 106l-91 -106h-60zM253 -8c-116 0 -207 91 -207 205c0 129 99 226 224 226c116 0 206 -91 206 -206c0 -129 -98 -225 -223 -225zM254 51c92 0 152 71 152 167c0 83 -54 145 -137 145c-90 0 -153 -71 -153 -167
c0 -84 56 -145 138 -145z" />
    <glyph glyph-name="odieresis" unicode="&#xf6;" horiz-adv-x="521" 
d="M398 517c-23 0 -45 20 -45 45c0 26 22 46 45 46c24 0 45 -20 45 -46c0 -25 -21 -45 -45 -45zM228 517c-24 0 -45 20 -45 45c0 26 21 46 45 46c23 0 45 -20 45 -46c0 -25 -22 -45 -45 -45zM253 -8c-116 0 -207 91 -207 205c0 129 99 226 224 226c116 0 206 -91 206 -206
c0 -129 -98 -225 -223 -225zM254 51c92 0 152 71 152 167c0 83 -54 145 -137 145c-90 0 -153 -71 -153 -167c0 -84 56 -145 138 -145z" />
    <glyph glyph-name="ograve" unicode="&#xf2;" horiz-adv-x="521" 
d="M262 498l-87 193h80l61 -193h-54zM253 -8c-116 0 -207 91 -207 205c0 129 99 226 224 226c116 0 206 -91 206 -206c0 -129 -98 -225 -223 -225zM254 51c92 0 152 71 152 167c0 83 -54 145 -137 145c-90 0 -153 -71 -153 -167c0 -84 56 -145 138 -145z" />
    <glyph glyph-name="otilde" unicode="&#xf5;" horiz-adv-x="521" 
d="M203 492l-51 6c13 74 46 110 93 110c25 0 45 -14 64 -31c21 -18 31 -30 46 -30c19 0 30 14 41 60l51 -6c-12 -73 -45 -110 -92 -110c-25 0 -46 14 -65 31c-21 19 -30 30 -45 30c-19 0 -31 -14 -42 -60zM253 -8c-116 0 -207 91 -207 205c0 129 99 226 224 226
c116 0 206 -91 206 -206c0 -129 -98 -225 -223 -225zM254 51c92 0 152 71 152 167c0 83 -54 145 -137 145c-90 0 -153 -71 -153 -167c0 -84 56 -145 138 -145z" />
    <glyph glyph-name="scaron" unicode="&#x161;" horiz-adv-x="403" 
d="M228 487l-94 194h56l56 -107l90 107h60l-158 -194h-10zM186 -8c-84 0 -142 40 -170 91l52 33c24 -39 59 -68 120 -68c56 0 84 23 84 62c0 35 -29 49 -91 81c-59 29 -102 60 -102 122c0 72 59 110 132 110c62 0 106 -27 133 -63l-47 -38c-20 25 -42 46 -87 46
c-39 0 -67 -17 -67 -50s25 -49 78 -75c60 -29 117 -60 117 -131s-51 -120 -152 -120z" />
    <glyph glyph-name="uacute" unicode="&#xfa;" horiz-adv-x="503" 
d="M261 498l98 193h84l-127 -193h-55zM193 -9c-91 0 -150 70 -131 184l42 239h68l-41 -233c-14 -79 15 -129 86 -129c74 0 122 45 137 129l42 233h68l-58 -327c-3 -21 1 -32 20 -32h38l-10 -55h-45c-61 0 -75 36 -69 73l1 7c-34 -56 -81 -89 -148 -89z" />
    <glyph glyph-name="ucircumflex" unicode="&#xfb;" horiz-adv-x="503" 
d="M165 496l158 193h10l94 -193h-55l-56 106l-91 -106h-60zM193 -9c-91 0 -150 70 -131 184l42 239h68l-41 -233c-14 -79 15 -129 86 -129c74 0 122 45 137 129l42 233h68l-58 -327c-3 -21 1 -32 20 -32h38l-10 -55h-45c-61 0 -75 36 -69 73l1 7c-34 -56 -81 -89 -148 -89z
" />
    <glyph glyph-name="udieresis" unicode="&#xfc;" horiz-adv-x="503" 
d="M387 517c-23 0 -45 20 -45 45c0 26 22 46 45 46c24 0 45 -20 45 -46c0 -25 -21 -45 -45 -45zM217 517c-24 0 -45 20 -45 45c0 26 21 46 45 46c23 0 45 -20 45 -46c0 -25 -22 -45 -45 -45zM193 -9c-91 0 -150 70 -131 184l42 239h68l-41 -233c-14 -79 15 -129 86 -129
c74 0 122 45 137 129l42 233h68l-58 -327c-3 -21 1 -32 20 -32h38l-10 -55h-45c-61 0 -75 36 -69 73l1 7c-34 -56 -81 -89 -148 -89z" />
    <glyph glyph-name="ugrave" unicode="&#xf9;" horiz-adv-x="503" 
d="M261 498l-87 193h80l61 -193h-54zM193 -9c-91 0 -150 70 -131 184l42 239h68l-41 -233c-14 -79 15 -129 86 -129c74 0 122 45 137 129l42 233h68l-58 -327c-3 -21 1 -32 20 -32h38l-10 -55h-45c-61 0 -75 36 -69 73l1 7c-34 -56 -81 -89 -148 -89z" />
    <glyph glyph-name="yacute" unicode="&#xfd;" horiz-adv-x="504" 
d="M273 498l98 193h84l-127 -193h-55zM187 -223c-83 0 -146 38 -176 99l54 35c26 -46 60 -74 122 -74c73 0 122 45 138 133l18 99c-30 -44 -75 -78 -141 -78c-91 0 -151 70 -131 184l42 239h68l-41 -233c-14 -79 15 -129 86 -129c75 0 122 45 137 129l42 233h68l-80 -453
c-22 -125 -97 -184 -206 -184z" />
    <glyph glyph-name="ydieresis" unicode="&#xff;" horiz-adv-x="504" 
d="M389 517c-23 0 -45 20 -45 45c0 26 22 46 45 46c24 0 45 -20 45 -46c0 -25 -21 -45 -45 -45zM219 517c-24 0 -45 20 -45 45c0 26 21 46 45 46c23 0 45 -20 45 -46c0 -25 -22 -45 -45 -45zM184 -223c-83 0 -146 38 -176 99l54 35c26 -46 60 -74 122 -74
c73 0 122 45 138 133l18 99c-30 -44 -75 -78 -141 -78c-91 0 -151 70 -131 184l42 239h68l-41 -233c-14 -79 15 -129 86 -129c75 0 122 45 137 129l42 233h68l-80 -453c-22 -125 -97 -184 -206 -184z" />
    <glyph glyph-name="zcaron" unicode="&#x17e;" horiz-adv-x="421" 
d="M263 487l-94 194h56l56 -107l90 107h60l-158 -194h-10zM10 0v10l294 347h-211l10 57h318v-11l-293 -347h230l-10 -56h-338z" />
    <glyph glyph-name=".null" horiz-adv-x="0" 
 />
    <glyph glyph-name="CR" unicode="&#xd;" horiz-adv-x="232" 
 />
    <glyph glyph-name="lessequal" unicode="&#x2264;" 
d="M107 189c-28 0 -54 24 -54 55s26 54 54 54c29 0 54 -23 54 -54s-25 -55 -54 -55z" />
    <glyph glyph-name="greaterequal" unicode="&#x2265;" 
d="M107 189c-28 0 -54 24 -54 55s26 54 54 54c29 0 54 -23 54 -54s-25 -55 -54 -55z" />
    <glyph glyph-name="partialdiff" unicode="&#x2202;" 
d="M107 189c-28 0 -54 24 -54 55s26 54 54 54c29 0 54 -23 54 -54s-25 -55 -54 -55z" />
    <glyph glyph-name="summation" unicode="&#x2211;" horiz-adv-x="783" 
d="M426 -3c41 -32 82 -65 146 -65c50 0 81 24 100 45l48 -43c-29 -35 -74 -67 -148 -67c-85 0 -144 50 -194 89c-44 33 -90 66 -147 66c-56 0 -94 -33 -121 -73l-49 40c27 40 64 71 117 84c-66 56 -106 142 -106 245c0 217 162 370 363 370c182 0 323 -133 323 -325
c0 -206 -143 -351 -332 -366zM397 55c167 0 288 133 288 309c0 154 -102 260 -251 260c-167 0 -289 -130 -289 -306c0 -153 100 -263 252 -263z" />
    <glyph glyph-name="product" unicode="&#x220f;" 
d="M107 189c-28 0 -54 24 -54 55s26 54 54 54c29 0 54 -23 54 -54s-25 -55 -54 -55z" />
    <glyph glyph-name="pi" unicode="&#x3c0;" 
d="M107 189c-28 0 -54 24 -54 55s26 54 54 54c29 0 54 -23 54 -54s-25 -55 -54 -55z" />
    <glyph glyph-name="integral" unicode="&#x222b;" 
d="M107 189c-28 0 -54 24 -54 55s26 54 54 54c29 0 54 -23 54 -54s-25 -55 -54 -55z" />
    <glyph glyph-name="Omega" unicode="&#x3a9;" 
d="M107 189c-28 0 -54 24 -54 55s26 54 54 54c29 0 54 -23 54 -54s-25 -55 -54 -55z" />
    <glyph glyph-name="Omega" unicode="&#x2126;" 
d="M107 189c-28 0 -54 24 -54 55s26 54 54 54c29 0 54 -23 54 -54s-25 -55 -54 -55z" />
    <glyph glyph-name="radical" unicode="&#x221a;" 
d="M107 189c-28 0 -54 24 -54 55s26 54 54 54c29 0 54 -23 54 -54s-25 -55 -54 -55z" />
    <glyph glyph-name="approxequal" unicode="&#x2248;" 
d="M107 189c-28 0 -54 24 -54 55s26 54 54 54c29 0 54 -23 54 -54s-25 -55 -54 -55z" />
    <glyph glyph-name="Delta" unicode="&#x394;" 
d="M107 189c-28 0 -54 24 -54 55s26 54 54 54c29 0 54 -23 54 -54s-25 -55 -54 -55z" />
    <glyph glyph-name="Delta" unicode="&#x2206;" 
d="M107 189c-28 0 -54 24 -54 55s26 54 54 54c29 0 54 -23 54 -54s-25 -55 -54 -55z" />
    <glyph glyph-name="nbspace" unicode="&#xa0;" horiz-adv-x="181" 
 />
    <glyph glyph-name="lozenge" unicode="&#x25ca;" 
d="M107 189c-28 0 -54 24 -54 55s26 54 54 54c29 0 54 -23 54 -54s-25 -55 -54 -55z" />
    <glyph glyph-name="apple" 
d="M107 189c-28 0 -54 24 -54 55s26 54 54 54c29 0 54 -23 54 -54s-25 -55 -54 -55z" />
    <glyph glyph-name="Euro" unicode="&#x20ac;" horiz-adv-x="603" 
d="M110 283h-62l9 53h65c38 108 140 176 248 176c91 0 153 -34 196 -99l-53 -36c-30 47 -69 74 -143 74c-77 0 -144 -43 -174 -115h226l-9 -53h-232c-2 -12 -3 -26 -3 -40c0 -9 0 -18 1 -26h222l-9 -53h-202c23 -70 80 -112 161 -112c67 0 108 25 146 66l47 -38
c-48 -59 -109 -88 -194 -88c-116 0 -204 68 -233 172h-90l9 53h72c-1 8 -1 16 -1 25c0 14 1 28 3 41z" />
    <glyph glyph-name="infinity" horiz-adv-x="747" 
d="M692 536c-25 0 -47 19 -47 47s22 47 47 47c24 0 47 -19 47 -47s-22 -47 -47 -47zM440 356l-75 -432c-16 -95 -56 -114 -122 -114h-39l10 55h28c25 0 46 10 56 65l74 426h-176l-80 -454c-17 -95 -56 -114 -122 -114h-42l10 55h30c26 0 47 10 57 66l79 447h-66l10 58h66
l31 176c15 88 59 125 125 125c46 0 74 -19 92 -44l-44 -42c-13 17 -23 25 -46 25c-30 0 -50 -14 -60 -68l-30 -172h177l34 195c15 88 60 126 125 126c49 0 79 -20 99 -49l-47 -40c-13 17 -24 28 -50 28c-29 0 -50 -15 -60 -69l-33 -191h245l-58 -327c-3 -21 0 -32 20 -32h40
l-9 -55h-49c-60 0 -80 29 -69 92l47 264h-178z" />
    <glyph glyph-name="notequal" horiz-adv-x="555" 
d="M372 356h-176l-80 -454c-17 -95 -56 -114 -122 -114h-42l10 55h30c26 0 47 10 57 66l79 447h-66l10 58h66l31 176c15 88 59 125 125 125c46 0 74 -19 92 -44l-44 -42c-13 17 -23 25 -46 25c-30 0 -50 -14 -60 -68l-30 -172h176l35 193c16 90 60 128 127 128
c51 0 80 -22 100 -50l-47 -40c-12 16 -24 29 -51 29c-31 0 -52 -15 -62 -71l-33 -189h107l-10 -58h-108l-76 -432c-16 -95 -56 -114 -122 -114h-39l10 55h28c25 0 46 10 56 65z" />
    </font>
</defs>
</svg>
